Торренты   
 
 

 

Бэтмен против Супермена: На заре справедливости в 3Д / Batman v Superman: Dawn of Justice 3D (Зак Снайдер / Zack Snyder) [2016, Фантастика, Боевик, Приключения, BDrip, 1080p] OverUnder / Вертикальная стереопара

Рейтинг 3D:
9 голосов
7.1
Рейтинг фильма:
8 голосов
6.4
 
Вы должны быть авторизированы,
чтобы ставить оценки


Бэтмен против Супермена: На заре справедливости / Batman v Superman: Dawn of Justice
(Театральная версия / Theatrical Cut)
Год выпуска: 2016
Страна: США (Warner Bros. Company, RatPac-Dune Entertainment, DC Comics, Atlas Entertainment, Cruel & Unusual Films)
Жанр: Фантастика, Боевик, Приключения
Продолжительность: 02:31:41
Перевод: Профессиональный дублированный(лицензия)
Русские субтитры: нет
Режиссер на русском: Зак Снайдер / Zack Snyder
В ролях: Генри Кавилл, Бен Аффлек, Галь Гадот, Джейсон Момоа, Эми Адамс, Джесси Айзенберг, Лорен Кохэн, Джеффри Дин Морган, Эзра Миллер, Дайан Лэйн
Описание: Опасаясь, что действия богоподобного супергероя так и останутся бесконтрольными, грозный и могущественный страж Готэм Сити бросает вызов самому почитаемому в наши дни спасителю Метрополиса, в то время как весь остальной мир решает, какой герой ему по-настоящему нужен. И пока Бэтмен и Супермен пребывают в состоянии войны друг с другом, возникает новая угроза, которая ставит человечество под самую большую опасность, с которой оно когда-либо сталкивалось.
Сэмпл: http://sendfile.su/1250852
Качество: BDrip
Контейнер: MKV
Формат 3D: OverUnder / Вертикальная стереопара
Порядок ракурсов: левый ракурс первый
Видео кодек: x264
Аудио кодек: AC3
Видео: AVC / High@L5.0 / 23,976 fps / 1920х2160 / 29,7 Мбит/сек
Аудио: Русский / AC3 / 48 KHz / 5.1 ch / 448 Кбит/сек(лицензия)
Аудио 2: Английский / AC3 / 48 KHz / 5.1 ch / 448 Кбит/сек
Релиз группы: ВНИМАНИЕ ! На встроенных ТВ-плеерах работать не будет!!!
ТВ Samsung в названии которого есть надпись Ultra HD , и LG Ultra HD 800 серии, Xiaomi Mi TV 2 воспроизводят полные стереопары встроенными плеерами
Железные плееры на которых воспроизводятся полные стереопары:Popcorn C-200 , Dune HD Smart D1 , Dune HD DUO , Dune HD Smart H1 , Dune HD Smart B1 , Dune HD Max , Dune HD TV-303D , Dune HD Base 3D, Philips HMP7001, Aura HD
Чтобы изображение было на весь экран в плеере выставляем, если рип 1920х1600 - то выставляем 2.35:1 , если 1920х2160 - то выставляем 16:9
17.07.2016. Релиз обновлён русская звуковая дорожка iTunes заменена на лицензию.
Желающие, скачайте заново торрент-файл.

MediaInfo

Общее
Уникальный идентификатор : 248851215124870565708998329726886302032 (0xBB37002D4293B3299772ACB371755150)
Полное имя : E:\закачки\Batman v Superman Dawn of Justice.Rip by SeRoGa00.mkv
Формат : Matroska
Версия формата : Version 2
Размер файла : 33,1 Гбайт
Продолжительность : 2 ч. 31 м.
Общий поток : 31,2 Мбит/сек
Дата кодирования : UTC 2016-07-17 14:02:25
Программа кодирования : mkvmerge v3.4.0 ('Rapunzel') сборка от May 15 2010 09:38:20
Библиотека кодирования : libebml v0.8.0 + libmatroska v0.9.0
Видео
Идентификатор : 1
Формат : AVC
Формат/Информация : Advanced Video Codec
Профиль формата : High@L5.0
Параметр CABAC формата : Да
Параметр ReFrames формата : 4 кадра
Идентификатор кодека : V_MPEG4/ISO/AVC
Продолжительность : 2 ч. 31 м.
Битрейт : 29,7 Мбит/сек
Ширина : 1920 пикселей
Высота : 2160 пикселей
Соотношение сторон : 0,889
Частота кадров : 23,976 кадра/сек
Цветовое пространство : YUV
Субдискретизация насыщенности : 4:2:0
Битовая глубина : 8 бит
Тип развёртки : Прогрессивная
Бит/(Пиксели*Кадры) : 0.299
Размер потока : 31,5 Гбайт (95%)
Заголовок : Rip by SeRoGa00
Библиотека кодирования : x264 core 148 r2638 7599210
Настройки программы : cabac=1 / ref=4 / deblock=1:-3:-3 / analyse=0x3:0x113 / me=umh / subme=10 / psy=1 / psy_rd=1.00:0.15 / mixed_ref=1 / me_range=24 / chroma_me=1 / trellis=2 / 8x8dct=1 / cqm=0 / deadzone=21,11 / fast_pskip=1 / chroma_qp_offset=-3 / threads=9 / lookahead_threads=2 / sliced_threads=0 / nr=0 / decimate=1 / interlaced=0 / bluray_compat=0 / constrained_intra=0 / bframes=10 / b_pyramid=2 / b_adapt=2 / b_bias=0 / direct=3 / weightb=1 / open_gop=0 / weightp=2 / keyint=250 / keyint_min=23 / scenecut=40 / intra_refresh=0 / rc_lookahead=60 / rc=crf / mbtree=1 / crf=18.0 / qcomp=0.60 / qpmin=10 / qpmax=69 / qpstep=4 / vbv_maxrate=40000 / vbv_bufsize=40000 / crf_max=0.0 / nal_hrd=none / filler=0 / ip_ratio=1.40 / aq=1:1.00
Язык : English
Default : Нет
Forced : Нет
Аудио #1
Идентификатор : 2
Формат : AC-3
Формат/Информация : Audio Coding 3
Расширение режима : CM (complete main)
Параметр Endianness формата : Big
Идентификатор кодека : A_AC3
Продолжительность : 2 ч. 31 м.
Вид битрейта : Постоянный
Битрейт : 448 Кбит/сек
Каналы : 6 каналов
Расположение каналов : Front: L C R, Side: L R, LFE
Частота : 48,0 КГц
Битовая глубина : 16 бит
Метод сжатия : С потерями
Размер потока : 486 Мбайт (1%)
Язык : Russian
Default : Да
Forced : Нет
Аудио #2
Идентификатор : 3
Формат : AC-3
Формат/Информация : Audio Coding 3
Расширение режима : CM (complete main)
Параметр Endianness формата : Big
Идентификатор кодека : A_AC3
Продолжительность : 2 ч. 31 м.
Вид битрейта : Постоянный
Битрейт : 448 Кбит/сек
Каналы : 6 каналов
Расположение каналов : Front: L C R, Side: L R, LFE
Частота : 48,0 КГц
Битовая глубина : 16 бит
Метод сжатия : С потерями
Размер потока : 486 Мбайт (1%)
Язык : English
Default : Нет
Forced : Нет

Скриншоты


Благодарности релизеру (6)

Торрент:

Статус:

Размер:

Зарегистрирован   [ 2016-07-17 21:49 ]

* не проверено

33.08 GB

 
 Мнение о фильме (7)





вот это размер!
а полная версия не предвидится в 3D?
 

Серега, ну ты даешь! Рип забабахал с битрейтом как у блюрика! )))
 

пощадите- наши лыжи не справляются :)
даешь без полос и с поменьше битрейтом!
 

Неувинаваты я оно само:)
 

ага! :)
 

serega768, нет тебе прощения..... )))
crf надо на уровне 22 выставлять.
 

Спасибос!!!