Торренты   
 
 

 

Angry Birds в кино / Angry Birds (Клэй Кэйтис, Фергал Рейли) [2016 г., Anamorph OverUnder]

Рейтинг 3D:
13 голосов
7.8
Рейтинг фильма:
12 голосов
6.6
 
Вы должны быть авторизированы,
чтобы ставить оценки


Angry Birds в кино / Angry Birds
Год выпуска: 2016
Страна: США, Финляндия
Жанр: мультфильм, боевик, комедия, семейный
Продолжительность: 1:37:13
Перевод: Профессиональный (полное дублирование)
Режиссер: Клэй Кэйтис, Фергал Рейли
В ролях: Джейсон Судейкис, Джош Гад, Дэнни МакБрайд, Майя Рудольф, Билл Хейдер, Питер Динклэйдж, Шон Пенн, Кигэн-Майкл Ки, Кейт МакКиннон, Тони Хейл
Описание: Фильм расскажет о том, как началось знаменитое противостояние птичек и свинок, персонажей популярной компьютерной игры, а также раскроет некоторые секреты любимых героев.
В центре сюжета история миролюбивых птиц, живущих на одиноком Птичьем острове. Птицы долгое время жили в изоляции от окружающего мира, считая, что более кроме них на свете нет никого. Но затем на остров прибывают странные зеленые существа - свиньи, которые поначалу не вызвали у птиц подозрений, но потом показали свои недобрые намерения.
И между пернатыми аборигенами и непрошеными гостями началась война...

Качество: BDRip
Контейнер: MKV
Формат 3D: Anamorph OverUnder
Видео: h.264 1920x1036 ~9.5 Mbps
Аудио:
1. Русский - AC3 / 5.1 Ch / 384 kbps (дубляж - iTunes)
2. Английский - AC3 / 5.1 Ch / 640 kbps
2. Английский - DTS / 5.1 Ch / 1509 kbps - отдельным файлом
Субтитры (text):
1. Русские - форсированные
2. Русские - полные
3. Английские - полные

Скриншоты

Media Info

Format : Matroska
Format version : Version 4 / Version 2
File size : 7.32 GiB
Duration : 1h 37mn
Overall bit rate : 10.8 Mbps
Movie name : ANGRY_BIRDS_3D.Title0
Encoded date : UTC 2016-07-31 23:05:30
Writing application : mkvmerge v8.3.0 ('Over the Horizon') 64bit
Writing library : XviD4PSP 6.0 / 54.29.105
Video
ID : 1
Format : AVC
Format/Info : Advanced Video Codec
Format profile : High@L4.1
Format settings, CABAC : Yes
Format settings, ReFrames : 4 frames
Codec ID : V_MPEG4/ISO/AVC
Duration : 1h 37mn
Bit rate : 9 538 Kbps
Width : 1 920 pixels
Height : 1 080 pixels
Display aspect ratio : 16:9
Frame rate mode : Constant
Frame rate : 23.976 fps
Color space : YUV
Chroma subsampling : 4:2:0
Bit depth : 8 bits
Scan type : Progressive
Bits/(Pixel*Frame) : 0.192
Stream size : 6.48 GiB (89%)
Writing library : x264 core 142
Encoding settings : cabac=1 / ref=4 / deblock=1:-3:-3 / analyse=0x3:0x133 / me=umh / subme=9 / psy=0 / mixed_ref=1 / me_range=16 / chroma_me=1 / trellis=2 / 8x8dct=1 / cqm=0 / deadzone=21,11 / fast_pskip=0 / chroma_qp_offset=2 / threads=4 / lookahead_threads=1 / sliced_threads=0 / nr=0 / decimate=1 / interlaced=0 / bluray_compat=0 / constrained_intra=0 / bframes=6 / b_pyramid=0 / b_adapt=2 / b_bias=0 / direct=1 / weightb=1 / open_gop=0 / weightp=2 / keyint=24 / keyint_min=13 / scenecut=40 / intra_refresh=0 / rc=crf / mbtree=0 / crf=18.0 / qcomp=0.60 / qpmin=0 / qpmax=69 / qpstep=4 / ip_ratio=1.40 / pb_ratio=1.30 / aq=1:1.00
Default : Yes
Forced : No
Audio #1
ID : 2
Format : AC-3
Format/Info : Audio Coding 3
Mode extension : CM (complete main)
Format settings, Endianness : Big
Codec ID : A_AC3
Duration : 1h 37mn
Bit rate mode : Constant
Bit rate : 384 Kbps
Channel(s) : 6 channels
Channel positions : Front: L C R, Side: L R, LFE
Sampling rate : 48.0 KHz
Bit depth : 16 bits
Compression mode : Lossy
Stream size : 267 MiB (4%)
Language : Russian
Default : Yes
Forced : No
Audio #2
ID : 3
Format : AC-3
Format/Info : Audio Coding 3
Mode extension : CM (complete main)
Format settings, Endianness : Big
Codec ID : A_AC3
Duration : 1h 37mn
Bit rate mode : Constant
Bit rate : 640 Kbps
Channel(s) : 6 channels
Channel positions : Front: L C R, Side: L R, LFE
Sampling rate : 48.0 KHz
Bit depth : 16 bits
Compression mode : Lossy
Delay relative to video : 27ms
Stream size : 445 MiB (6%)
Language : English
Default : No
Forced : No
Text #1
ID : 4
Format : UTF-8
Codec ID : S_TEXT/UTF8
Codec ID/Info : UTF-8 Plain Text
Title : Forced
Language : Russian
Default : Yes
Forced : No
Text #2
ID : 5
Format : UTF-8
Codec ID : S_TEXT/UTF8
Codec ID/Info : UTF-8 Plain Text
Title : Full
Language : Russian
Default : No
Forced : No
Text #3
ID : 6
Format : UTF-8
Codec ID : S_TEXT/UTF8
Codec ID/Info : UTF-8 Plain Text
Title : SDH
Language : English
Default : No
Forced : No
Благодарности релизеру (34)

Торрент:

Статус:

Размер:

Зарегистрирован   [ 2016-08-01 15:05 ]

* не проверено

8.61 GB

 
 Мнение о фильме (12)





Кто качал, как мульт, как 3D?
 

никак-уже третий день-ни фига опять не качается (((
 

Эхх...
 

Спасибо, всё качает.
 

Всё прекрасно качает. Минут 15-ти хватило, на скачивание данного релиза!
Автору СПАСИБО!!!
 

Такая же проблема уже была, решилась включением в клиенте в настройках разрешения DHT, а теперь так же- не установлено соединение(((жалько(((
 

Amstaff, доброго времени суток !!!
скажите пжл фильмы ужасов в ближайшее время будут представлены на сервере
 

Нет закачки
 

люди подскажите, не знаю где спросить , фильмы в 4к есть или нет? Онт вообще бывают?
 

А в кропе будет? Или с этим разрешением не нужно?
 

Акрон, не нужно.
 

Amstaff. Звуковую дорожку-лицензию, отдельным файлом можно вставить, лицензия в соседнем фильме.