Торренты   
 
 

 

Белоснежка и Охотник 2 / The Huntsman: Winter's War (Седрик Николя-Троян) [Anamorph OverUnder]

Рейтинг 3D:
8 голосов
7.5
Рейтинг фильма:
8 голосов
5.9
 
Вы должны быть авторизированы,
чтобы ставить оценки


Белоснежка и Охотник 2 / The Huntsman: Winter's War
Страна: США
Жанр: фэнтези, боевик, драма, приключения
Продолжительность: 01:53:57
Перевод: Профессиональный (полное дублирование)
Режиссер: Седрик Николя-Троян
В ролях: Крис Хемсворт, Шарлиз Терон, Джессика Честейн, Эмили Блант, Ник Фрост, Роб Брайдон, Шеридан Смит, Александра Роуч, Сопе Дирису, Сэм Хэзелдайн
Описание: Когда любовь уходит, сердце прекрасной девы обращается в лед. И даже сотни королевств не смогут сдержать поступь ее несметного воинства. Лишь Охотник не ведает страха. Сквозь проклятый лес он идет навстречу своей судьбе.
Качество: BDRip
Контейнер: MKV
Формат 3D: Anamorph OverUnder
Видео: h.264 1920x1080 ~14,8 Mbps
Аудио:
1. Русский - AC3 / 5.1 Ch / 640 kbps (дубляж)
2. Английский - AC3 / 5.1 Ch / 640 kbps
3. Английский - DTS / 5.1 Ch / 1509 kbps - отдельным файлом
4. Русский - DTS / 5.1 Ch / 1509 kbps - отдельным файлом
Субтитры (text):
1. Русские - форсированные
2. Русские - полные
3. Английские - полные
6.08 Раздача обновлена: русская дорога заменена на лицензионную; добавлена русская DTS-дорога (отдельным файлом)

Скриншоты

Media Info

Format : Matroska
Format version : Version 4 / Version 2
File size : 13.1 GiB
Duration : 1h 53mn
Overall bit rate mode : Variable
Overall bit rate : 16.4 Mbps
Movie name : THE_HUNTSMAN_WINTERS_WAR_TC_3D.Title0
Encoded date : UTC 2016-08-04 14:00:11
Writing application : mkvmerge v8.3.0 ('Over the Horizon') 64bit
Writing library : XviD4PSP 6.0 / 54.29.105
Video
ID : 1
Format : AVC
Format/Info : Advanced Video Codec
Format profile : High@L4.1
Format settings, CABAC : Yes
Format settings, ReFrames : 2 frames
Format settings, GOP : M=3, N=24
Codec ID : V_MPEG4/ISO/AVC
Duration : 1h 53mn
Bit rate mode : Variable
Bit rate : 14.8 Mbps
Maximum bit rate : 4 627 Kbps
Width : 1 920 pixels
Height : 1 080 pixels
Display aspect ratio : 16:9
Frame rate mode : Constant
Frame rate : 23.976 fps
Color space : YUV
Chroma subsampling : 4:2:0
Bit depth : 8 bits
Scan type : Progressive
Bits/(Pixel*Frame) : 0.298
Stream size : 11.8 GiB (90%)
Default : Yes
Forced : No
Color primaries : BT.709
Transfer characteristics : BT.709
Matrix coefficients : BT.709
Audio #1
ID : 2
Format : AC-3
Format/Info : Audio Coding 3
Mode extension : CM (complete main)
Format settings, Endianness : Big
Codec ID : A_AC3
Duration : 1h 53mn
Bit rate mode : Constant
Bit rate : 640 Kbps
Channel(s) : 6 channels
Channel positions : Front: L C R, Side: L R, LFE
Sampling rate : 48.0 KHz
Bit depth : 16 bits
Compression mode : Lossy
Delay relative to video : 16ms
Stream size : 522 MiB (4%)
Language : Russian
Default : Yes
Forced : No
Audio #2
ID : 3
Format : AC-3
Format/Info : Audio Coding 3
Mode extension : CM (complete main)
Format settings, Endianness : Big
Codec ID : A_AC3
Duration : 1h 53mn
Bit rate mode : Constant
Bit rate : 640 Kbps
Channel(s) : 6 channels
Channel positions : Front: L C R, Side: L R, LFE
Sampling rate : 48.0 KHz
Bit depth : 16 bits
Compression mode : Lossy
Delay relative to video : 27ms
Stream size : 522 MiB (4%)
Language : English
Default : No
Forced : No
Text #1
ID : 4
Format : UTF-8
Codec ID : S_TEXT/UTF8
Codec ID/Info : UTF-8 Plain Text
Title : Forced
Language : Russian
Default : Yes
Forced : No
Text #2
ID : 5
Format : UTF-8
Codec ID : S_TEXT/UTF8
Codec ID/Info : UTF-8 Plain Text
Title : iTunes
Language : Russian
Default : No
Forced : No
Text #3
ID : 6
Format : UTF-8
Codec ID : S_TEXT/UTF8
Codec ID/Info : UTF-8 Plain Text
Title : SDH
Language : English
Default : No
Forced : No
Благодарности релизеру (26)

Торрент:

Статус:

Размер:

Зарегистрирован   [ 2016-08-06 14:39 ]

* не проверено

15.46 GB

 
 Мнение о фильме (10)





расширенная версия ожидается?
 

sergshep, я не в курсе
 

А кроп? А то мне домашние, мозг выели этим фильмом.
 

sanya856, кроп будет сегодня вечером. Это ж не быстро делается...
 

Понимаю...... Приспросился, что бы планировать время для просмотра.
 

добрый день. ребята станьте пожалуйста на раздачу. спасибо за понимание)
 

Mtrskin, ребята, ну ей-богу заколебали! Я раздаю 24/7 через 100-мегабитный канал, и постоянно жалобы что никто не раздает!!! Разбирайтесь со своими компами, роутерами, учитесь блин!!!
 

Да нормально качается.
 

хм... прошу прощение, о Великий Амстафф. у меня эта раздача залетела за полчаса, а вот без черных полос(на весь экран) уже стоит на закачке больше двух часов и залилось только 4,2%.
спасибо за Вашу работу и еще раз приношу свои извинения)
 

Mtrskin, спасибо за великого, но оба фильма раздаю с одного компа, с одного диска. И поэтому не могу даже предположить, почему такое творится.
ЗЫ: За "великого" спасибо, но не стоило. Я скромный.