Торренты   
 
 

 

Ворона-проказница / Der kleine Rabe Socke (Уте фон Мюнхов-Поль, Зандор Йессе) [2012 г., Anamorph OverUnder]

Рейтинг 3D:
3 голосов
7.4
Рейтинг фильма:
3 голосов
6.5
 
Вы должны быть авторизированы,
чтобы ставить оценки


Ворона-проказница / Der kleine Rabe Socke
Год выпуска: 2012
Страна: Германия
Жанр: мультфильм, комедия, приключения
Продолжительность: 01:18:12
Перевод: Профессиональный (многоголосый, закадровый)
Режиссер: Уте фон Мюнхов-Поль, Зандор Йессе
В ролях: Катарина Тальбах, Ян Дилэй, Анна Тальбах, Константин фон Ящерофф, Сантьяго Цизмер, Георг Трифон, , Монти Арнольд, Геральд Шаале, Янник Эндеманн
Описание: Зок - черная ворона с желтым клювом. Он - главный герой серии детских книг, вышедших в 1996 году и разошедшихся по всему миру большими тиражами. Это первый полнометражный фильм с его участием.
Качество: BDRip
Контейнер: MKV
Формат 3D: Anamorph OverUnder
Видео: h.264 1920x1080 ~11.8 Mbps
Аудио:
1. Русский - AC3 / 2/0 Ch / 192 kbps (многоголосый закадровый - R5)

Скриншоты

Media Info

Format : Matroska
Format version : Version 2
File size : 6.71 GiB
Duration : 1h 18mn
Overall bit rate mode : Variable
Overall bit rate : 12.3 Mbps
Movie name : RABE_SOCKE.Title0
Encoded date : UTC 2016-08-12 01:27:50
Writing library : libebml v0.7.8 + libmatroska v0.8.1
Video
ID : 1
Format : AVC
Format/Info : Advanced Video Codec
Format profile : High@L4.1
Format settings, CABAC : Yes
Format settings, GOP : M=3, N=24
Codec ID : V_MPEG4/ISO/AVC
Duration : 1h 18mn
Bit rate mode : Variable
Bit rate : 11.8 Mbps
Width : 1 920 pixels
Height : 1 080 pixels
Display aspect ratio : 16:9
Frame rate mode : Constant
Frame rate : 23.976 fps
Color space : YUV
Chroma subsampling : 4:2:0
Bit depth : 8 bits
Scan type : Progressive
Bits/(Pixel*Frame) : 0.238
Stream size : 6.47 GiB (96%)
Default : Yes
Forced : No
Color primaries : BT.709
Transfer characteristics : BT.709
Matrix coefficients : BT.709
Audio
ID : 2
Format : AC-3
Format/Info : Audio Coding 3
Mode extension : CM (complete main)
Format settings, Endianness : Big
Codec ID : A_AC3
Duration : 1h 18mn
Bit rate mode : Constant
Bit rate : 192 Kbps
Channel(s) : 2 channels
Channel positions : Front: L R
Sampling rate : 48.0 KHz
Bit depth : 16 bits
Compression mode : Lossy
Stream size : 107 MiB (2%)
Language : Russian
Default : Yes
Forced : No
Благодарности релизеру (6)

Торрент:

Статус:

Размер:

Зарегистрирован   [ 2016-08-12 06:57 ]

* не проверено

6.71 GB