Торренты   
 
 

 

Книга джунглей / The Jungle book (Джoн Фаврo) [2016 г., Anamorph OverUnder]

Рейтинг 3D:
23 голосов
7.7
Рейтинг фильма:
25 голосов
6.9
 
Вы должны быть авторизированы,
чтобы ставить оценки


Книга джунглей / The Jungle book
Год выпуска: 2016
Страна: Великобритания, США
Жанр: фэнтези, драма, приключения, семейный
Продолжительность: 01:45:54
Перевод: Профессиональный (полное дублирование)
Режиссер: Джoн Фавpo
В ролях: Hил Сeтхи, Билл Мюррей, Бен Кингсли, Идрис Эльба, Лупита Нионго, Скарлетт Йоханссон, Джанкарло Эспозито, Кристофер Уокен, Гарри Шендлинг, Брайтон Роуз
Описание: Мaугли, человеческий детеныш, был принят в волчью стаю после того, как Багира нашел его младенцем в лесу. Но непримиримая борьба с опасным и страшным тигром Шерхaном вынуждает Мaугли покинуть волчью стаю и отправиться в деревню к людям. На пути мальчика ждут удивительные открытия и захватывающие приключения с медведем Бaлу, питоном Каа, огромным царем обезьян и другими обитателями дремучих джунглей.

Качество: BDRip
Контейнер: MKV
Формат 3D: Anamorph OverUnder
Видео: h.264 1920x1080 ~11.9 Mbps
Аудио:
1. Русский - AC3 / 5.1 Ch / 640 kbps (дубляж)
2. Английский - AC3 / 5.1 Ch / 640 kbps
Субтитры (text):
1. Русские - полные
2. Английские - полные
28.08 Релиз обновлен - русская дорога заменена на лицензионную

Скриншоты

Media Info

Format : Matroska
Format version : Version 4 / Version 2
File size : 9.75 GiB
Duration : 1h 45mn
Overall bit rate : 13.2 Mbps
Movie name : JUNGLE_BOOK_3D_RMX_BLUEBIRD.Title0
Encoded date : UTC 2016-08-18 09:18:06
Writing application : mkvmerge v8.3.0 ('Over the Horizon') 64bit
Writing library : Lavf57.41.100
Video
ID : 1
Format : AVC
Format/Info : Advanced Video Codec
Format profile : High@L4.1
Format settings, CABAC : Yes
Format settings, ReFrames : 4 frames
Codec ID : V_MPEG4/ISO/AVC
Duration : 1h 45mn
Bit rate : 11.9 Mbps
Width : 1 920 pixels
Height : 1 080 pixels
Display aspect ratio : 16:9
Frame rate mode : Constant
Frame rate : 23.976 fps
Color space : YUV
Chroma subsampling : 4:2:0
Bit depth : 8 bits
Scan type : Progressive
Bits/(Pixel*Frame) : 0.239
Stream size : 8.79 GiB (90%)
Writing library : x264 core 142
Encoding settings : cabac=1 / ref=4 / deblock=1:-3:-3 / analyse=0x3:0x133 / me=umh / subme=9 / psy=0 / mixed_ref=1 / me_range=32 / chroma_me=1 / trellis=2 / 8x8dct=1 / cqm=0 / deadzone=21,11 / fast_pskip=0 / chroma_qp_offset=2 / threads=4 / lookahead_threads=1 / sliced_threads=0 / nr=0 / decimate=1 / interlaced=0 / bluray_compat=0 / constrained_intra=0 / bframes=6 / b_pyramid=0 / b_adapt=2 / b_bias=0 / direct=1 / weightb=1 / open_gop=0 / weightp=2 / keyint=24 / keyint_min=13 / scenecut=40 / intra_refresh=0 / rc=crf / mbtree=0 / crf=18.0 / qcomp=0.60 / qpmin=0 / qpmax=69 / qpstep=4 / ip_ratio=1.40 / pb_ratio=1.30 / aq=1:1.00
Default : Yes
Forced : No
Color primaries : BT.709
Transfer characteristics : BT.709
Matrix coefficients : BT.709
Audio #1
ID : 2
Format : AC-3
Format/Info : Audio Coding 3
Mode extension : CM (complete main)
Format settings, Endianness : Big
Codec ID : A_AC3
Duration : 1h 45mn
Bit rate mode : Constant
Bit rate : 384 Kbps
Channel(s) : 6 channels
Channel positions : Front: L C R, Side: L R, LFE
Sampling rate : 48.0 KHz
Bit depth : 16 bits
Compression mode : Lossy
Stream size : 291 MiB (3%)
Language : Russian
Default : Yes
Forced : No
Audio #2
ID : 3
Format : AC-3
Format/Info : Audio Coding 3
Mode extension : CM (complete main)
Format settings, Endianness : Big
Codec ID : A_AC3
Duration : 1h 45mn
Bit rate mode : Constant
Bit rate : 640 Kbps
Channel(s) : 6 channels
Channel positions : Front: L C R, Side: L R, LFE
Sampling rate : 48.0 KHz
Bit depth : 16 bits
Compression mode : Lossy
Delay relative to video : 37ms
Stream size : 485 MiB (5%)
Language : English
Default : No
Forced : No
Text #1
ID : 4
Format : UTF-8
Codec ID : S_TEXT/UTF8
Codec ID/Info : UTF-8 Plain Text
Language : Russian
Default : No
Forced : No
Text #2
ID : 5
Format : UTF-8
Codec ID : S_TEXT/UTF8
Codec ID/Info : UTF-8 Plain Text
Title : SDH
Language : English
Default : No
Forced : No
Благодарности релизеру (70)

Торрент:

Статус:

Размер:

Зарегистрирован   [ 2016-08-27 21:48 ]

* не проверено

9.95 GB

 
 Мнение о фильме (55)

1, 2, 3  След.






Этот фильм сразу идет без черных полос?
 

RAS1006, да
 

Жаль, что с этого сайта у меня перестали качаться фильмы (((
 

RAS1006, сайт тут ни причем. Вы скачиваете с него торрент-файл, который выкладываю я. Все мои раздачи скачивает много людей. Так что вполне возможно что у Вас что-то не так с настройками.
 

RAS1006, проверь включена ли в настройках сеть DHT .
 

http://s017.radikal.ru/i410/1608/10/f09963b6a21c.png
в том то и дело, что все включено как советовал тут кто-то, а вот с других сайтов все качает (((
 

RAS1006,
значит рейтинг проверьте..
 

Пошло качать спустя 5 минут, до этого было неактивно..(удалите пост, он уже бесполезен)
 

Откуда оригинал? Дайте ссылку!
 

Спасибо ОГРОМНОЕ!!! Ждал с нетерпением!!!
 

На телеке не показывает!
 

Подтверждаю! На телевизоре не показывает. Прошлось качать с другого сайта(
 

а у меня на телеке всё прекрасно показывает LG
 

Vitus_2007, sharanew, какие у вас телевизоры? вертикальную стереопару точно поддерживают? В моем рипе разрешение, настройки кодирования x264 и т.д. - всё по стандарту.
 

Мой ТВ - LG 49UF8537
 

Vitus_2007, телеки lg поддерживают данный формат. Они и dts и вертикальную стереопару- всё воспроизводят. Так что странно что у Вас не идет, мой lg показывает без проблем.
 

Раздавать кто нибудь будет????
 

wowann1961, я раздаю
 

На моей лыже 42LW4500 тоже не пошёл ((
 

Johnny_01, wowann1961, Vitus_2007, здесь раздел мнений о фильме а не форум по ремонту и настройке аппаратуры. На всех торрент-трекерах, кстати, подобные посты и требования скорости причисляются к флуду.
 

Страница 1 из 3

1, 2, 3  След.