Торренты   
 
 

 

Книга джунглей в 3Д / The Jungle Book 3D (Джон Фавро / Jon Favreau) [2016, Фэнтези, Драма, Приключения, Семейный, BDrip, 1080p]Full OverUnder / Вертикальная стереопара

Рейтинг 3D:
9 голосов
7.8
Рейтинг фильма:
8 голосов
8.5
 
Вы должны быть авторизированы,
чтобы ставить оценки


Книга джунглей / The Jungle Book
Год выпуска: 2016
Страна: Великобритания, США (Walt Disney Pictures)
Жанр: Фэнтези, Драма, Приключения, Семейный
Продолжительность: 01:45:59
Перевод: Профессиональный дублированный(Лицензия)
Русские субтитры: нет
Режиссер на русском: Джон Фавро / Jon Favreau
В ролях: Нил Сетхи, Билл Мюррей, Бен Кингсли, Идрис Эльба, Лупита Нионго, Скарлетт Йоханссон, Джанкарло Эспозито, Кристофер Уокен, Гарри Шендлинг, Брайтон Роуз
Описание: Мaугли, человеческий детеныш, был принят в волчью стаю после того, как Багира нашел его младенцем в лесу. Но непримиримая борьба с опасным и страшным тигром Шерхaном вынуждает Мaугли покинуть волчью стаю и отправиться в деревню к людям. На пути мальчика ждут удивительные открытия и захватывающие приключения с пантерой Багирой, медведем Бaлу, питоном Каа, царем обезьян Луи и другими обитателями дремучих джунглей.
Сэмпл: http://sendfile.su/1261764
Качество: BDrip
Контейнер: MKV
Формат 3D: OverUnder / Вертикальная стереопара
Порядок ракурсов: левый ракурс первый
Видео кодек: x264
Аудио кодек: AC3
Видео: AVC / High@L5.0 / 23,976 fps / 1920х2160 / 27,7 Мбит/сек
Аудио: Русский / AC3 / 48 KHz / 5.1 ch / 640 Кбит/сек(Лицензия)
Аудио 2: Английский / AC3 / 48 KHz / 5.1 ch / 640 Кбит/сек
Релиз группы: ВНИМАНИЕ ! На встроенных ТВ-плеерах работать не будет!!!
ТВ Samsung в названии которого есть надпись Ultra HD , и LG Ultra HD 800 серии, Xiaomi Mi TV 2 воспроизводят полные стереопары встроенными плеерами
Железные плееры на которых воспроизводятся полные стереопары:Popcorn C-200 , Dune HD Smart D1 , Dune HD DUO , Dune HD Smart H1 , Dune HD Smart B1 , Dune HD Max , Dune HD TV-303D , Dune HD Base 3D, Philips HMP7001, Aura HD
Чтобы изображение было на весь экран в плеере выставляем, если рип 1920х1600 - то выставляем 2.35:1 , если 1920х2160 - то выставляем 16:9
1.09.2016. Релиз обновлён - русская звуковая дорожка iTunes заменена на лицензию.
Желающие, скачайте заново торрент-файл.

MediaInfo

Общее
Уникальный идентификатор : 198004905384172052803065270464483417917 (0x94F65B8E6497B9E7804DD383F507DF3D)
Полное имя : E:\закачки\The Jungle Book.Rip by SeRoGa00.mkv
Формат : Matroska
Версия формата : Version 2
Размер файла : 21,9 Гбайт
Продолжительность : 1 ч. 46 м.
Общий поток : 29,6 Мбит/сек
Дата кодирования : UTC 2016-09-01 12:43:12
Программа кодирования : mkvmerge v3.4.0 ('Rapunzel') сборка от May 15 2010 09:38:20
Библиотека кодирования : libebml v0.8.0 + libmatroska v0.9.0
Видео
Идентификатор : 1
Формат : AVC
Формат/Информация : Advanced Video Codec
Профиль формата : High@L5.0
Параметр CABAC формата : Да
Параметр ReFrames формата : 4 кадра
Идентификатор кодека : V_MPEG4/ISO/AVC
Продолжительность : 1 ч. 46 м.
Битрейт : 27,7 Мбит/сек
Ширина : 1920 пикселей
Высота : 2160 пикселей
Соотношение сторон : 0,889
Частота кадров : 23,976 кадра/сек
Цветовое пространство : YUV
Субдискретизация насыщенности : 4:2:0
Битовая глубина : 8 бит
Тип развёртки : Прогрессивная
Бит/(Пиксели*Кадры) : 0.279
Размер потока : 20,5 Гбайт (94%)
Заголовок : Rip by SeRoGa00
Библиотека кодирования : x264 core 148 r2638 7599210
Настройки программы : cabac=1 / ref=4 / deblock=1:-3:-3 / analyse=0x3:0x113 / me=umh / subme=10 / psy=1 / psy_rd=1.00:0.15 / mixed_ref=1 / me_range=24 / chroma_me=1 / trellis=2 / 8x8dct=1 / cqm=0 / deadzone=21,11 / fast_pskip=1 / chroma_qp_offset=-3 / threads=9 / lookahead_threads=2 / sliced_threads=0 / nr=0 / decimate=1 / interlaced=0 / bluray_compat=0 / constrained_intra=0 / bframes=10 / b_pyramid=2 / b_adapt=2 / b_bias=0 / direct=3 / weightb=1 / open_gop=0 / weightp=2 / keyint=250 / keyint_min=23 / scenecut=40 / intra_refresh=0 / rc_lookahead=60 / rc=crf / mbtree=1 / crf=18.0 / qcomp=0.60 / qpmin=10 / qpmax=69 / qpstep=4 / vbv_maxrate=40000 / vbv_bufsize=40000 / crf_max=0.0 / nal_hrd=none / filler=0 / ip_ratio=1.40 / aq=1:1.00
Язык : English
Default : Нет
Forced : Нет
Аудио #1
Идентификатор : 2
Формат : AC-3
Формат/Информация : Audio Coding 3
Расширение режима : CM (complete main)
Параметр Endianness формата : Big
Идентификатор кодека : A_AC3
Продолжительность : 1 ч. 46 м.
Вид битрейта : Постоянный
Битрейт : 640 Кбит/сек
Каналы : 6 каналов
Расположение каналов : Front: L C R, Side: L R, LFE
Частота : 48,0 КГц
Битовая глубина : 16 бит
Метод сжатия : С потерями
Размер потока : 486 Мбайт (2%)
Default : Да
Forced : Нет
Аудио #2
Идентификатор : 3
Формат : AC-3
Формат/Информация : Audio Coding 3
Расширение режима : CM (complete main)
Параметр Endianness формата : Big
Идентификатор кодека : A_AC3
Продолжительность : 1 ч. 46 м.
Вид битрейта : Постоянный
Битрейт : 640 Кбит/сек
Каналы : 6 каналов
Расположение каналов : Front: L C R, Side: L R, LFE
Частота : 48,0 КГц
Битовая глубина : 16 бит
Метод сжатия : С потерями
Размер потока : 486 Мбайт (2%)
Default : Нет
Forced : Нет

Скриншоты


Благодарности релизеру (13)

Торрент:

Статус:

Размер:

Зарегистрирован   [ 2016-09-01 18:26 ]

* не проверено

21.93 GB

 
 Мнение о фильме (8)





Люди кто ставит за 3D высокие оценки вы хоть фильм то смотрели??? Там 3D нет вообще...
 

IngenerElectric, Вы думаете они с этим заморачиваются, они все подряд ставят 10, а в случае чего, начинают орать что у недовольных плохие ТВ, глаза, проигрыватель и прочее.
 

Velderet, вам бы не глаза а голову подлечить...
 

Amstaff, а Вам бы прежде чем рот раскрывать, подумать. Вы юноша со свои максимализмом дома страдайте, а то любое упоминание об отсутствии 3Д воспринимаете как кровную обиду. Сходите к психологу и не переносите личностные проблемы на окружающих.
 

Так 3-d или нет?
 

3д и весьма неплохое.
 

Velderet, IngenerElectric, оценивать фильм идите на кинопоиск и imdb, здесь люди ставят релизеру за раздачу и якобы отсутствие 3D в фильме не может повлиять на то, что скачивающие этим просто "говорят спасибо" по 10 бальной шкале раздающему, ферштейн?
 

Всё отлично, и 3d извук!! Спасибо огромное!!!