Торренты   
 
 

 

Люди Икс: Апокалипсис / X-Men: Apocalypse (Брайан Сингер) [2016 г., Anamorph OverUnder]

Рейтинг 3D:
4 голосов
7.6
Рейтинг фильма:
4 голосов
4.5
 
Вы должны быть авторизированы,
чтобы ставить оценки


Люди Икс: Апокалипсис / X-Men: Apocalypse
Год выпуска: 2016
Страна: США
Жанр: фантастика, боевик, приключения
Продолжительность: 02:23:57
Перевод: Профессиональный (полное дублирование)
Режиссер: Брайан Сингер
В ролях: Джеймс МакЭвой, Майкл Фассбендер, Дженнифер Лоуренс, Николас Холт, Оскар Айзек, Роуз Бирн, Эван Питерс, Джош Хелман, Софи Тернер, Тай Шеридан
Описание: События «Дней Минувшего Будущего» оказали колоссальное влияние на мир, где мутанты и люди борются за свое место под Солнцем. В это нелегкое время Людям Икс предстоит столкнуться со своим самым опасным противником - древним мутантом Апокалипсисом, существом, схватка с которым может стать последней не только для мутантов, но и в принципе для всего человечества.
В поисках способа победы над неуязвимым и бессмертным монстром Людям Икс предстоит узнать больше о происхождении своего вида. Но Апокалипсис неимоверно силен, и вероятность победы все уменьшается, ведь он твердо убежден, что только сильнейшие имеют право на выживание...

Качество: BDRip
Контейнер: MKV
Формат 3D: Anamorph OverUnder
Видео: h.264 1920x1080 ~11.9 Mbps
Аудио:
1. Русский - AC3 / 5.1 Ch / 384 kbps (дубляж - iTunes)
2. Английский - AC3 / 5.1 Ch / 640 kbps
Субтитры (text):
1. Русские - форсированные
2. Английские - полные

Скриншоты

Media Info

Format : Matroska
Format version : Version 4 / Version 2
File size : 13.3 GiB
Duration : 2h 23mn
Overall bit rate : 13.2 Mbps
Movie name : X-Men: Apocalypse (2016)
Encoded date : UTC 2016-09-09 13:55:45
Writing application : mkvmerge v8.3.0 ('Over the Horizon') 64bit
Writing library : Lavf57.41.100
Video
ID : 1
Format : AVC
Format/Info : Advanced Video Codec
Format profile : High@L4.1
Format settings, CABAC : Yes
Codec ID : V_MPEG4/ISO/AVC
Bit rate : 11.9 Mbps
Width : 1 920 pixels
Height : 1 080 pixels
Display aspect ratio : 16:9
Frame rate mode : Variable
Original frame rate : 23.976 fps
Color space : YUV
Chroma subsampling : 4:2:0
Bit depth : 8 bits
Scan type : Progressive
Default : Yes
Forced : No
Audio #1
ID : 2
Format : AC-3
Format/Info : Audio Coding 3
Mode extension : CM (complete main)
Format settings, Endianness : Big
Codec ID : A_AC3
Duration : 2h 23mn
Bit rate mode : Constant
Bit rate : 384 Kbps
Channel(s) : 6 channels
Channel positions : Front: L C R, Side: L R, LFE
Sampling rate : 48.0 KHz
Bit depth : 16 bits
Compression mode : Lossy
Delay relative to video : 42ms
Stream size : 395 MiB (3%)
Language : Russian
Default : Yes
Forced : No
Audio #2
ID : 3
Format : AC-3
Format/Info : Audio Coding 3
Mode extension : CM (complete main)
Format settings, Endianness : Big
Codec ID : A_AC3
Duration : 2h 23mn
Bit rate mode : Constant
Bit rate : 640 Kbps
Channel(s) : 6 channels
Channel positions : Front: L C R, Side: L R, LFE
Sampling rate : 48.0 KHz
Bit depth : 16 bits
Compression mode : Lossy
Delay relative to video : 37ms
Stream size : 659 MiB (5%)
Language : English
Default : No
Forced : No
Text #1
ID : 4
Format : UTF-8
Codec ID : S_TEXT/UTF8
Codec ID/Info : UTF-8 Plain Text
Title : Forced, iTunes
Language : Russian
Default : Yes
Forced : No
Text #2
ID : 5
Format : UTF-8
Codec ID : S_TEXT/UTF8
Codec ID/Info : UTF-8 Plain Text
Title : iTunes
Language : English
Default : No
Forced : No
Благодарности релизеру (35)

Торрент:

Статус:

Размер:

Зарегистрирован   [ 2016-09-09 17:14 ]

* не проверено

13.29 GB

 
 Мнение о фильме (8)





Спасибо!!!!!!!!!
 

please full 3D download 1920x2160p regards
 

kefere, I don't make such things. Wait for serega768 works
 

Ну спасибо, ну порадовали! Пятница, вечер будет великолепным! Парни, от всей души спасибо!
 

забацайте кто-нибудь без полос!!!
 

djbob2000, сегодня ночью выложу кроп
 

муть пиндосовская
 

Boryan1, ну иди смотри Экипаж, ватник.