Торренты   
 
 

 

Варкрафт / Warcraft (Дункан Джонс) [2016 г., OverUnder]

Рейтинг 3D:
7 голосов
7.9
Рейтинг фильма:
6 голосов
7.0
 
Вы должны быть авторизированы,
чтобы ставить оценки


Варкрафт / Warcraft
Год выпуска: 2016
Страна: Китай, Канада, Япония, США
Жанр: Фэнтези, боевик, приключения
Продолжительность: 123 мин
Перевод: Профессиональный (полное дублирование)
Режиссер: Дункан Джонс
В ролях: Трэвис Фиммел
Пола Пэттон
Бен Фостер
Доминик Купер
Тоби Кеббелл
Бен Шнетцер
Роберт Казински
Клэнси Браун
Дэниэл Ву
Рут Негга
Описание: Веками магия и неприступные стены защищали людей от любых напастей. Но древнее зло, побежденное и забытое тысячелетия назад, пробудилось.
В самом сердце королевства открылся темный портал, и раса невиданных существ наводнила земли Азерота. Так начались события, призванные навсегда изменить судьбу этого мира.
Доп. информация: только русский перевод...
без субтитров
Формат 3D: OverUnder

Скриншоты





Media Info

Format : Matroska
Format version : Version 2
File size : 15.6 GiB
Duration : 2h 3mn
Overall bit rate : 18.2 Mbps
Movie name : WARCRAFT_3D.Title0
Encoded date : UTC 2016-09-14 23:26:10
Writing application : DVDFab 9.3.1.2
Writing library : libebml v0.7.8 + libmatroska v0.8.1
Video
ID : 1
Format : AVC
Format/Info : Advanced Video Codec
Format profile : Main@L5
Format settings, CABAC : Yes
Format settings, ReFrames : 2 frames
Codec ID : V_MPEG4/ISO/AVC
Duration : 2h 3mn
Bit rate : 17.8 Mbps
Width : 1 920 pixels
Height : 2 160 pixels
Display aspect ratio : 0.889
Frame rate mode : Constant
Frame rate : 23.976 (24000/1001) fps
Color space : YUV
Chroma subsampling : 4:2:0
Bit depth : 8 bits
Scan type : Progressive
Bits/(Pixel*Frame) : 0.179
Stream size : 15.0 GiB (96%)
Writing library : x264 core 142
Encoding settings : cabac=1 / ref=1 / deblock=1:-1:-1 / analyse=0x1:0 / me=hex / subme=5 / psy=0 / mixed_ref=0 / me_range=16 / chroma_me=1 / trellis=0 / 8x8dct=0 / cqm=0 / deadzone=21,11 / fast_pskip=0 / chroma_qp_offset=0 / threads=4 / lookahead_threads=1 / sliced_threads=0 / nr=0 / decimate=1 / interlaced=0 / bluray_compat=0 / constrained_intra=0 / bframes=2 / b_pyramid=0 / b_adapt=1 / b_bias=0 / direct=1 / weightb=0 / open_gop=0 / weightp=0 / keyint=24 / keyint_min=13 / scenecut=40 / intra_refresh=0 / rc=2pass / mbtree=0 / bitrate=17800 / ratetol=1.0 / qcomp=0.60 / qpmin=0 / qpmax=69 / qpstep=4 / cplxblur=20.0 / qblur=0.5 / ip_ratio=1.40 / pb_ratio=1.30 / aq=1:1.00
Default : Yes
Forced : No
Color range : Limited
Color primaries : BT.709
Transfer characteristics : BT.709
Matrix coefficients : BT.709
Audio
ID : 2
Format : AC-3
Format/Info : Audio Coding 3
Mode extension : CM (complete main)
Format settings, Endianness : Big
Codec ID : A_AC3
Duration : 2h 3mn
Bit rate mode : Constant
Bit rate : 384 Kbps
Channel(s) : 6 channels
Channel positions : Front: L C R, Side: L R, LFE
Sampling rate : 48.0 KHz
Frame rate : 31.250 fps (1536 spf)
Compression mode : Lossy
Stream size : 338 MiB (2%)
Language : Russian
Default : Yes
Forced : No
Благодарности релизеру (3)

Торрент:

Статус:

Размер:

Зарегистрирован   [ 2016-09-15 10:19 ]

поглощено

15.64 GB