Торренты   
 
 

 

Варкрафт / Warcraft (Дункан Джонс) [2016 г., Anamorph OverUnder]

Рейтинг 3D:
17 голосов
7.7
Рейтинг фильма:
17 голосов
6.3
 
Вы должны быть авторизированы,
чтобы ставить оценки


Варкрафт / Warcraft Год выпуска: 2016
Страна: США
Жанр: фэнтези, боевик, приключения
Продолжительность: 02:03:06
Перевод: Профессиональный (полное дублирование)
Режиссер: Дункан Джонс
В ролях: Трэвис Фиммел, Пола Пэттон, Бен Фостер,Доминик Купер, Тоби Кеббелл, Бен Шнетцер, Роберт Казински, Клэнси Браун, Дэниэл Ву, Рут Негга
Описание:
Веками магия и неприступные стены защищали людей от любых напастей. Но древнее зло, побежденное и забытое тысячелетия назад, пробудилось.
В самом сердце королевства открылся темный портал, и раса невиданных существ наводнила земли Азерота. Так начались события, призванные навсегда изменить судьбу этого мира.

Качество: BDRip
Контейнер: MKV
Формат 3D: Anamorph OverUnder
Видео: h.264 1920x1080 ~ 9.3 Mbps
Аудио:
1. Русский - AC3 / 5.1 Ch / 384 kbps (дубляж - iTunes)
2. Английский - AC3 / 5.1 Ch / 640 kbps
Субтитры (text):
1. Русские - полные
2. Английские - полные

Скриншоты

Media Info

Format : Matroska
Format version : Version 4 / Version 2
File size : 9.02 GiB
Duration : 2h 3mn
Overall bit rate : 10.5 Mbps
Movie name : WARCRAFT_3D.Title0
Encoded date : UTC 2016-09-17 04:07:55
Writing application : mkvmerge v8.3.0 ('Over the Horizon') 64bit
Writing library : libebml v1.3.1 + libmatroska v1.4.2
Video
ID : 1
Format : AVC
Format/Info : Advanced Video Codec
Format profile : High@L4.1
Format settings, CABAC : Yes
Format settings, ReFrames : 4 frames
Codec ID : V_MPEG4/ISO/AVC
Duration : 2h 3mn
Bit rate : 9 257 Kbps
Width : 1 920 pixels
Height : 1 080 pixels
Display aspect ratio : 16:9
Frame rate mode : Constant
Frame rate : 23.976 fps
Color space : YUV
Chroma subsampling : 4:2:0
Bit depth : 8 bits
Scan type : Progressive
Bits/(Pixel*Frame) : 0.186
Stream size : 7.96 GiB (88%)
Writing library : x264 core 142
Encoding settings : cabac=1 / ref=4 / deblock=1:-3:-3 / analyse=0x3:0x133 / me=umh / subme=9 / psy=0 / mixed_ref=1 / me_range=16 / chroma_me=1 / trellis=2 / 8x8dct=1 / cqm=0 / deadzone=21,11 / fast_pskip=0 / chroma_qp_offset=0 / threads=4 / lookahead_threads=1 / sliced_threads=0 / nr=0 / decimate=1 / interlaced=0 / bluray_compat=0 / constrained_intra=0 / bframes=6 / b_pyramid=0 / b_adapt=2 / b_bias=0 / direct=2 / weightb=1 / open_gop=0 / weightp=2 / keyint=240 / keyint_min=25 / scenecut=40 / intra_refresh=0 / rc=crf / mbtree=0 / crf=18.0 / qcomp=0.60 / qpmin=0 / qpmax=69 / qpstep=4 / ip_ratio=1.40 / pb_ratio=1.30 / aq=1:1.00
Default : Yes
Forced : No
Audio #1
ID : 2
Format : AC-3
Format/Info : Audio Coding 3
Mode extension : CM (complete main)
Format settings, Endianness : Big
Codec ID : A_AC3
Duration : 2h 3mn
Bit rate mode : Constant
Bit rate : 384 Kbps
Channel(s) : 6 channels
Channel positions : Front: L C R, Side: L R, LFE
Sampling rate : 48.0 KHz
Bit depth : 16 bits
Compression mode : Lossy
Stream size : 338 MiB (4%)
Language : Russian
Default : Yes
Forced : No
Audio #2
ID : 3
Format : AC-3
Format/Info : Audio Coding 3
Mode extension : CM (complete main)
Format settings, Endianness : Big
Codec ID : A_AC3
Duration : 2h 3mn
Bit rate mode : Constant
Bit rate : 640 Kbps
Channel(s) : 6 channels
Channel positions : Front: L C R, Side: L R, LFE
Sampling rate : 48.0 KHz
Bit depth : 16 bits
Compression mode : Lossy
Stream size : 564 MiB (6%)
Language : English
Default : No
Forced : No
Text #1
ID : 4
Format : UTF-8
Codec ID : S_TEXT/UTF8
Codec ID/Info : UTF-8 Plain Text
Language : Russian
Default : No
Forced : No
Text #2
ID : 5
Format : UTF-8
Codec ID : S_TEXT/UTF8
Codec ID/Info : UTF-8 Plain Text
Language : English
Default : No
Forced : No
Благодарности релизеру (14)

Торрент:

Статус:

Размер:

Зарегистрирован   [ 2016-09-17 08:21 ]

* не проверено

9.02 GB

 
 Мнение о фильме (17)





На замену предыдущему рипу.
 

Качайте!
 

Вот первые скачавшие - и сразу оценку "2" за 3Д один из них поставил... не знаю, что у него со зрением - объем здесь очень даже хорошо виден.
 

Спасибо! Так категорически мало стало фильмов 3D в размере 1920*1080, просто жесть. Ощущение, что про такие размеры забыли!!! Не забывайте про нас...пожалуйста!
 

descent52, а каких же тогда много?
 

Огромное спасибо, я очень ждал эту раздачу!!)
 

Amstaff, он видимо имел в виду кастратки "бисчорных палос"
 

AAABBB, а, ну я люблю бес чорных палос. Мне так больше нравится смотреть фильм.
 

Amstaff, я тоже раньше всё тянул на полный экран, потом прошло. и в локализованных озвучках/дубляжах разочаровался. имхо у бесполосных вариантов два минуса и один плюс. площадь изображения больше. но из-за зума уменьшается глубина 3D, и часто страдает построение кадра. а на полосы хорошо ложатся сабы.
 

AAABBB, ну мне нужны только форсы, поэтому насколько их хорошо видно это неважно, их же немного. А насчет что 3д хуже я не согласен.
 

Мне оцени понравилоси
 

Hacker1187, твоя русский очень хоросая
 

3D нормально, но вот фильм.... Я ожидал большего... Такая же шляпа, что и DOOM, по играм нет фильмов нормально снятых...
 

спасибо огромное
 

Что то не пойму, почему нигде сидов нет..
 

Отлично. Спасибо за фильмец.
 

в целом фильм нормальный. идея тоже.
но есть недочёты в плане взаимодействия персонажей в схватке. а точнее - где то орки прямо блещут силой а где то их втроём один человек-воин бьёт, странно это смотреть, где с одного удара они падают и умирают, а между собой наносят такие удары и остаются в живых.
а в целом неплохо! раздающему спасибо!