Торренты   
 
 

 

Алиса в Зазеркалье / Alice Through the Looking Glass (Джеймс Бобин) [2016 г., Anamorph OverUnder]

Рейтинг 3D:
28 голосов
7.8
Рейтинг фильма:
28 голосов
6.7
 
Вы должны быть авторизированы,
чтобы ставить оценки


Алиса в Зазеркалье / Alice Through the Looking Glass
Год выпуска: 2016
Страна: США, Великобритания
Жанр: фэнтези, приключения, семейный
Продолжительность: 1:52:57
Перевод: Профессиональный (полное дублирование)
Режиссер: Джеймс Бобин
В ролях: Миа Васиковска, Джонни Депп, Хелена Бонем Картер, Энн Хэтэуэй, Саша Барон Коэн, Рис Иванс, Мэтт Лукас, Линдси Дункан, Лео Билл, Джеральдин Джеймс
Описание: Следуйте за Алисой в магическое Зазеркалье, навстречу новым невероятным приключениям! Здесь миром правит фантазия. Здесь нет никаких границ. Здесь возможно абсолютно все. Безумный Шляпник, Белая и Красная Королевы, Голубая Гусеница и, конечно, Улыбка Без Кота – все они ждут вас в причудливом мире, созданном великим кинорассказчиком Тимом Бертоном по мотивам книг Льюиса Кэррола. Алисе предстоит совершить полное неожиданностей путешествие, спасти своего друга Шляпника и даже сойтись в схватке с самим беспощадным Временем.
Качество: BDRip
Контейнер: MKV
Формат 3D: Anamorph OverUnder
Видео: h.264 1920x1080 ~12.2 Mbps
Аудио:
1. Русский - AC3 / 5.1 Ch / 640 kbps (дубляж)
2. Английский - AC3 / 5.1 Ch / 640 kbps
3. Английский - DTS / 5.1 Ch / 1509 kbps (отдельным файлом)
Субтитры (text):
1. Русские - форсированные
2. Английские - полные
8.10 Релиз обновлен: русская дорога заменена на лицензионную.

Скриншоты

Media Info

Format : Matroska
Format version : Version 4 / Version 2
File size : 10.6 GiB
Duration : 1h 52mn
Overall bit rate : 13.4 Mbps
Movie name : Алиса в Зазеркалье
Encoded date : UTC 2016-10-01 15:30:40
Writing application : mkvmerge v8.3.0 ('Over the Horizon') 64bit
Writing library : XviD4PSP 6.0 / 54.29.105
Video
ID : 1
Format : AVC
Format/Info : Advanced Video Codec
Format profile : High@L4.1
Format settings, CABAC : Yes
Format settings, ReFrames : 4 frames
Codec ID : V_MPEG4/ISO/AVC
Duration : 1h 52mn
Bit rate : 12.2 Mbps
Width : 1 920 pixels
Height : 1 080 pixels
Display aspect ratio : 16:9
Frame rate mode : Constant
Frame rate : 23.976 fps
Color space : YUV
Chroma subsampling : 4:2:0
Bit depth : 8 bits
Scan type : Progressive
Bits/(Pixel*Frame) : 0.245
Stream size : 9.58 GiB (90%)
Writing library : x264 core 142
Encoding settings : cabac=1 / ref=4 / deblock=1:-3:-3 / analyse=0x3:0x133 / me=umh / subme=9 / psy=0 / mixed_ref=1 / me_range=16 / chroma_me=1 / trellis=2 / 8x8dct=1 / cqm=0 / deadzone=21,11 / fast_pskip=0 / chroma_qp_offset=0 / threads=4 / lookahead_threads=1 / sliced_threads=0 / nr=0 / decimate=1 / interlaced=0 / bluray_compat=0 / constrained_intra=0 / bframes=6 / b_pyramid=0 / b_adapt=2 / b_bias=0 / direct=2 / weightb=1 / open_gop=0 / weightp=2 / keyint=240 / keyint_min=25 / scenecut=40 / intra_refresh=0 / rc=crf / mbtree=0 / crf=17.0 / qcomp=0.60 / qpmin=0 / qpmax=69 / qpstep=4 / ip_ratio=1.40 / pb_ratio=1.30 / aq=1:1.00
Default : Yes
Forced : No
Audio #1
ID : 2
Format : AC-3
Format/Info : Audio Coding 3
Mode extension : CM (complete main)
Format settings, Endianness : Big
Codec ID : A_AC3
Duration : 1h 52mn
Bit rate mode : Constant
Bit rate : 384 Kbps
Channel(s) : 6 channels
Channel positions : Front: L C R, Side: L R, LFE
Sampling rate : 48.0 KHz
Bit depth : 16 bits
Compression mode : Lossy
Stream size : 310 MiB (3%)
Language : Russian
Default : Yes
Forced : No
Audio #2
ID : 3
Format : AC-3
Format/Info : Audio Coding 3
Mode extension : CM (complete main)
Format settings, Endianness : Big
Codec ID : A_AC3
Duration : 1h 52mn
Bit rate mode : Constant
Bit rate : 640 Kbps
Channel(s) : 6 channels
Channel positions : Front: L C R, Side: L R, LFE
Sampling rate : 48.0 KHz
Bit depth : 16 bits
Compression mode : Lossy
Delay relative to video : 27ms
Stream size : 517 MiB (5%)
Language : English
Default : No
Forced : No
Text #1
ID : 4
Format : UTF-8
Codec ID : S_TEXT/UTF8
Codec ID/Info : UTF-8 Plain Text
Title : forced
Language : Russian
Default : Yes
Forced : No
Text #2
ID : 5
Format : UTF-8
Codec ID : S_TEXT/UTF8
Codec ID/Info : UTF-8 Plain Text
Title : Full
Language : English
Default : No
Forced : No
Нажми одну из кнопок ниже, скажи "спасибо"! Релизеру будет приятно!
Благодарности релизеру (235)

Торрент:

Статус:

Размер:

Зарегистрирован   [ 2016-10-08 08:28 ]

* не проверено

12 GB