Торренты   
 
 

 

Шрек Третий / Shrek The Third 3D (Крис Миллер, Раман Хуи / Chris Miller, Raman Hui) [2007 г., 720р, OverUnder]

Рейтинг 3D:
2 голосов
9.5
Рейтинг фильма:
2 голосов
9.0
 
Вы должны быть авторизированы,
чтобы ставить оценки


[3D]Шрек Третий / Shrek The Third
Год выпуска: 2007
Страна: США
Жанр: фэнтези, комедия, приключения, семейный, мультфильм
Продолжительность: 01:32:40 час
Перевод: Профессиональный (полное дублирование)
Режиссер: Крис Миллер, Раман Хуи / Chris Miller, Raman Hui
В ролях: Майк Майерс, Эдди Мёрфи, Кэмерон Диаз, Антонио Бандерас, Джули Эндрюс, Джон Клиз, Руперт Эверет, Эрик Айдл, Джастин Тимберлэйк.
Описание: Королем может быть не каждый - особенно если вы не очень симпатичный великан. Когда Шрэк женился на принцессе Фионе, он меньше всего на свете хотел управлять Далекой-Далекой страной. Такой он невластолюбивый. Однако отец Фионы, король Гарольд, внезапно умирает, и корону должен унаследовать именно Шрэк. Как-никак, он все-таки муж наследницы.
Однако Шрэк наотрез отказывается от бремени власти, и решает отправиться вместе со своими старыми друзьями Ослом и Котом в сапогах на поиски кандидата на трон. Если Шрэк не найдет себе подходящей замены, ему придется управлять сказочной страной самому… и это надолго. Похоже, что король Артур - тот, кто им нужен.
Однако в отсутствие великана его старый враг принц по имени Чарминг замышляет всякие пакости, для чего и возвращается в сказочную страну. Шрэку придется очень постараться, чтобы спасти страну от происков врагов и от возможного переворота
Доп. информация: Качество: 3DBDrip 720p
Продолжительность: 01:32:40 час.
Формат 3d: OverUnder / Вертикальная стереопара, левый ракурс выше.
Формат: MKV
Видео кодек: H.264
Аудио кодек: AС3
Видео: MPEG4 Video (H264), 1280x1440, 23.98fps, 5639 Kbps, 0.128 bit/pixel.
Аудио: Русский: AC3 (6 ch), 48 kHz, 640 kbps.
Формат 3d: OverUnder

Скриншоты


Медиаинфо

Полное имя : Shrek_3_3D_BDRip_720p.mkv
Формат : Matroska
Размер файла : 4,15 Гбайт
Продолжительность : 1 ч. 32 м.
Общий поток : 6406 Кбит/сек
Название фильма : Shrek_3_3D_BDRip_720p
Дата кодирования : UTC 2011-01-29 07:03:04
Программа кодирования : mkvmerge v4.4.0 (Die Wiederkehr) сборка от Oct 31 2010 21:52:48
Библиотека кодирования : libebml v1.0.0 + libmatroska v1.0.0
Видео
Идентификатор : 1
Формат : AVC
Формат/Информация : Advanced Video Codec
Профиль формата : High@L4.1
Параметр CABAC формата : Да
Параметр ReFrames формата : 4 кадры
Идентификатор кодека : V_MPEG4/ISO/AVC
Продолжительность : 1 ч. 32 м.
Битрейт : 5639 Кбит/сек
Ширина : 1280 пикс.
Высота : 1440 пикс.
Соотношение сторон : 0,889
Частота кадров : 23,976 кадр/сек
Цветовое пространство : YUV
Подвыборка цветности : 4:2:0
Битовая глубина : 8 бит
Тип развёртки : Прогрессивная
Бит/(Пиксели*Кадры) : 0.128
Размер потока : 3,65 Гбайт (88%)
Заголовок : Shrek_3_3D
Библиотека кодирования : x264 core 112 r1867 22bfd31
Настройки программы : cabac=1 / ref=4 / deblock=1:-2:-2 / analyse=0x3:0x113 / me=umh / subme=7 / psy=1 / psy_rd=1.00:0.00 / mixed_ref=1 / me_range=24 / chroma_me=1 / trellis=2 / 8x8dct=1 / cqm=0 / deadzone=21,11 / fast_pskip=0 / chroma_qp_offset=-2 / threads=12 / sliced_threads=0 / nr=0 / decimate=1 / interlaced=0 / constrained_intra=0 / bframes=3 / b_pyramid=0 / b_adapt=2 / b_bias=0 / direct=1 / weightb=1 / open_gop=0 / weightp=2 / keyint=250 / keyint_min=23 / scenecut=40 / intra_refresh=0 / rc_lookahead=40 / rc=crf / mbtree=1 / crf=18.0 / qcomp=0.60 / qpmin=10 / qpmax=51 / qpstep=4 / ip_ratio=1.40 / aq=1:1.00
Язык : English
Аудио
Идентификатор : 2
Формат : AC-3
Формат/Информация : Audio Coding 3
Расширение режима : CM (complete main)
Идентификатор кодека : A_AC3
Продолжительность : 1 ч. 32 м.
Вид битрейта : Постоянный
Битрейт : 640 Кбит/сек
Канал(ы) : 6 канала(ов)
Расположение каналов : Front: L C R, Side: L R, LFE
Частота : 48,0 КГц
Битовая глубина : 16 бит
Метод сжатия : С потерями
Размер потока : 424 Мбайт (10%)
Заголовок : Dub
Язык : Russian
Благодарности релизеру (5)

Торрент:

Статус:

Размер:

Зарегистрирован   [ 2011-02-16 19:25 ]

проверено

4.15 GB