Торренты   
 
 

 

Варкрафт (расширенная версия) / Warcraft (Дункан Джонс) [2016 г., Anamorph OverUnder]

Рейтинг 3D:
6 голосов
7.6
Рейтинг фильма:
6 голосов
5.6
 
Вы должны быть авторизированы,
чтобы ставить оценки


Варкрафт (расширенная версия) / Warcraft Год выпуска: 2016
Страна: США
Жанр: фэнтези, боевик, приключения
Продолжительность: 2:13:14
Перевод: Профессиональный (полное дублирование)
Режиссер: Дункан Джонс
В ролях: Трэвис Фиммел, Пола Пэттон, Бен Фостер,Доминик Купер, Тоби Кеббелл, Бен Шнетцер, Роберт Казински, Клэнси Браун, Дэниэл Ву, Рут Негга
Описание: Веками магия и неприступные стены защищали людей от любых напастей. Но древнее зло, побежденное и забытое тысячелетия назад, пробудилось.
В самом сердце королевства открылся темный портал, и раса невиданных существ наводнила земли Азерота. Так начались события, призванные навсегда изменить судьбу этого мира.


Доп. информация: Фильм содержит 2D-вставки, не включенные режиссером в театральную версию. Данные вставки идут без перевода, с русскими субтитрами.

Качество: BDRip
Контейнер: MKV
Формат 3D: Anamorph OverUnder
Видео: h.264 1920x1080 ~13.8 Mbps
Аудио:
1. Русский - AC3 / 5.1 Ch / 640 kbps
Субтитры:
1. Русские - вшитые в видеопоток, неотключаемые (на непереведенные сцены)

Скриншоты

Media Info

Format : Matroska
Format version : Version 2
File size : 13.7 GiB
Duration : 2h 13mn
Overall bit rate mode : Variable
Overall bit rate : 14.7 Mbps
Movie name : WARCRAFT_3D-2D_EXT.Title0
Encoded date : UTC 2016-10-06 15:31:30
Writing library : libebml v0.7.8 + libmatroska v0.8.1
Video
ID : 1
Format : AVC
Format/Info : Advanced Video Codec
Format profile : High@L4.1
Format settings, CABAC : Yes
Format settings, GOP : M=3, N=24
Codec ID : V_MPEG4/ISO/AVC
Duration : 2h 13mn
Bit rate mode : Variable
Bit rate : 13.8 Mbps
Width : 1 920 pixels
Height : 1 080 pixels
Display aspect ratio : 16:9
Frame rate mode : Constant
Frame rate : 23.976 fps
Color space : YUV
Chroma subsampling : 4:2:0
Bit depth : 8 bits
Scan type : Progressive
Bits/(Pixel*Frame) : 0.277
Stream size : 12.8 GiB (94%)
Default : Yes
Forced : No
Color primaries : BT.709
Transfer characteristics : BT.709
Matrix coefficients : BT.709
Audio
ID : 2
Format : AC-3
Format/Info : Audio Coding 3
Mode extension : CM (complete main)
Format settings, Endianness : Big
Codec ID : A_AC3
Duration : 2h 13mn
Bit rate mode : Constant
Bit rate : 640 Kbps
Channel(s) : 6 channels
Channel positions : Front: L C R, Side: L R, LFE
Sampling rate : 48.0 KHz
Bit depth : 16 bits
Compression mode : Lossy
Stream size : 610 MiB (4%)
Language : Russian
Default : Yes
Forced : No
Благодарности релизеру (7)

Торрент:

Статус:

Размер:

Зарегистрирован   [ 2016-10-06 20:16 ]

* не проверено

13.69 GB

 
 Мнение о фильме (18)





h.264 1920x1080 (crop) ~13.8 Mbps по скринам не похоже
 

h.264 1920x1080 (crop)
(crop)
по скринам не похоже
 

по скринам не похажа, завыли, человек выложил вам фильм, а вы су.и.....
 

dubl21,
охладись немного
 

killer29, да это он seveen-а передразнил.
 

Я так понял- дело в субтитрах! Если я отредактирую SRT , уважаемый Amstaff сделает CROP?!
 

c33alex, а в чем будет заключаться редактирование?
 

Всё что вшито в картинку - сделаю текстом! посмотрел... иногда вшитый текст вылазит из бордюра на видео ряд (( возможно кроп сделать 850-860 ?
 

c33alex, что такое "кроп 850-860"?
 

Amstaff,
Делай кроп...бог с ними с сабами...посмотрим без них...все равно бухой буду смотреть...
 

killer29, если я сделаю кроп - туда тоже смогу сабы нарисовать (правда, они будут на картинке).
 

1. Удалённые и Расширенные Эпизоды (0:13:57):
1.1. Дуротан и Оргрим Просят Позволения Войти (0:00:41)
1.2. Битва Дуротана и Чёрного Шрама (0:01:27)
1.3. Разговор Орков о Скверне у Костра (0:01:33)
1.4. Лотар Получает Огнестрел в Стальгорне (0:01:27)
1.5. Калла и Кадгар на Пути в Таверну "Львиная Гордость" (0:01:04)
1.6. Лотар Даёт Указания Командному Составу и Допрашивает Медива (0:00:52)
1.7. Король и Королева Беседуют на Балконе (0:01:07)
1.8. Встреча Королевств (0:01:04)
1.9. Город Готовится к Войне (0:01:38)
1.10. Лотар Скорбит: Горона Утешает Его (0:02:11)
1.11. Антонидас Просит Кадгара Стать Новым Хранителем (0:01:08)
Самое длительное время 0:02:11...нужны ли сабы?...пока читаешь сцена кончится
 

killer29, я просто не понимаю чем не устраивает тот вариант с сабами, как в этой раздаче? Ну налезают они на картинку, и что? Как будто srt и тому подобные не будут налезать.
 

Amstaff,
Просто сделай кроп...с сабами или без...всеравно спасибо
 

можно же увеличить до тех пор, пока не станет видно нарисованных))
 

Либо вот эту область только сделать уCROPом
 

Amstaff,
 

ne znaio zapisat film