Торренты   
 
 


Шрек Навсегда / Shrek Forever After 3D (Майк Митчел / Mike Mitchell) [2010 г.,720р, OverUnder]

Рейтинг 3D:
8 голосов
6.6
Рейтинг фильма:
8 голосов
7.4
 
Вы должны быть авторизированы,
чтобы ставить оценки


[3D]Шрек Навсегда / Shrek Forever After
Год выпуска: 2010
Страна: США
Жанр: фэнтези, комедия, приключения, семейный, мультфильм
Продолжительность: 01:33:13 час
Перевод: Профессиональный (полное дублирование)
Режиссер: Майк Митчел / Mike Mitchell
В ролях: Майк Майерс, Эдди Мёрфи, Кэмерон Диаз, Антонио Бандерас, Джули Эндрюс, Джон Хэмм, Джон Клиз, Крэйг Робинсон, Уолт Дорн, Джейн Линч.
Описание: Чем бы еще заняться огру, который уже сразился со злым драконом, спас прекрасную принцессу и уберег от беды королевство родственников по линии жены? Что ж, если вы Шрек, то, сами того не заметив, вы вдруг сядете дома и станете наслаждаться покоем в кругу семьи. Вместо того чтобы как раньше пугать деревенских жителей, теперь Шрек, хоть и с неохотой, но соглашается оставлять автографы на их вилах. А куда же подевался знаменитый рык этого огра?...
Доп. информация: Качество: 3DBDrip 720p
Продолжительность: 01:33:13 час.
Формат 3d: OverUnder / Вертикальная стереопара, левый ракурс выше.
Формат: MKV
Видео кодек: H.264
Аудио кодек: AС3
Видео: MPEG4 Video (H264), 1280x1088, 23.98fps, 5386 Kbps, 0.161 bit/pixel.
Аудио: Русский: AC3 (6 ch), 48 kHz, 640 kbps.
Формат 3d: OverUnder

Скриншоты


Mediainfo

Полное имя : Shrek_4_3D_BDRip_720p.mkv
Формат : Matroska
Размер файла : 4,00 Гбайт
Продолжительность : 1 ч. 33 м.
Общий поток : 6148 Кбит/сек
Название фильма : Shrek_4_3D_BDRip_720p
Дата кодирования : UTC 2011-02-01 18:35:12
Программа кодирования : mkvmerge v4.4.0 (Die Wiederkehr) сборка от Oct 31 2010 21:52:48
Библиотека кодирования : libebml v1.0.0 + libmatroska v1.0.0
Видео
Идентификатор : 1
Формат : AVC
Формат/Информация : Advanced Video Codec
Профиль формата : High@L4.0
Параметр CABAC формата : Да
Параметр ReFrames формата : 4 кадры
Идентификатор кодека : V_MPEG4/ISO/AVC
Продолжительность : 1 ч. 33 м.
Битрейт : 5386 Кбит/сек
Ширина : 1280 пикс.
Высота : 1088 пикс.
Соотношение сторон : 1,176
Соотношение сторон в оригинале : 0,889
Частота кадров : 23,976 кадр/сек
Цветовое пространство : YUV
Подвыборка цветности : 4:2:0
Битовая глубина : 8 бит
Тип развёртки : Прогрессивная
Бит/(Пиксели*Кадры) : 0.161
Размер потока : 3,51 Гбайт (88%)
Заголовок : Shrek_4_3D
Библиотека кодирования : x264 core 110 r1820 fdcf2ae
Настройки программы : cabac=1 / ref=4 / deblock=1:-2:-2 / analyse=0x3:0x113 / me=umh / subme=7 / psy=1 / psy_rd=1.00:0.15 / mixed_ref=1 / me_range=16 / chroma_me=1 / trellis=2 / 8x8dct=1 / cqm=0 / deadzone=21,11 / fast_pskip=1 / chroma_qp_offset=-3 / threads=6 / sliced_threads=0 / nr=0 / decimate=1 / interlaced=0 / constrained_intra=0 / bframes=6 / b_pyramid=0 / b_adapt=2 / b_bias=0 / direct=3 / weightb=1 / open_gop=0 / weightp=2 / keyint=250 / keyint_min=23 / scenecut=40 / intra_refresh=0 / rc_lookahead=40 / rc=crf / mbtree=1 / crf=18.0 / qcomp=0.60 / qpmin=10 / qpmax=51 / qpstep=4 / ip_ratio=1.40 / aq=1:1.00
Язык : English
Аудио
Идентификатор : 2
Формат : AC-3
Формат/Информация : Audio Coding 3
Расширение режима : CM (complete main)
Идентификатор кодека : A_AC3
Продолжительность : 1 ч. 33 м.
Вид битрейта : Постоянный
Битрейт : 640 Кбит/сек
Канал(ы) : 6 канала(ов)
Расположение каналов : Front: L C R, Side: L R, LFE
Частота : 48,0 КГц
Битовая глубина : 16 бит
Метод сжатия : С потерями
Задержка видео : 24 мс.
Размер потока : 427 Мбайт (10%)
Заголовок : Dub
Язык : Russian
Остальные раздачи этого фильма (5)
Благодарности релизеру (3)

Торрент:

Статус:

Размер:

Зарегистрирован   [ 2011-02-16 19:52 ]

проверено

4 GB