Торренты   
 
 


День независимости: Возрождение / Independence Day: Resurgence (Роланд Эммерих) [2016 г., Anamorph OverUnder]

Рейтинг 3D:
23 голосов
6.8
Рейтинг фильма:
24 голосов
5.0
 
Вы должны быть авторизированы,
чтобы ставить оценки


День независимости: Возрождение / Independence Day: Resurgence
Год выпуска: 2016
Страна: США, 20th Century Fox Film Corporation
Жанр: Боевик, Фантастика, Приключения
Продолжительность: 01:59:44
Перевод: Профессиональный (полное дублирование)
Режиссер: Роланд Эммерих
В ролях: Лиам Хемсворт, Джефф Голдблюм, Джесси Ашер, Билл Пуллман, Майка Монро, Села Уорд, Уильям Фихтнер, Джадд Хёрш, Брент Спайнер, Патрик Ст. Эсприт
Описание: Используя инопланетные технологии, жители Земли создали специальную программу по защите планеты. Но ничего не может нас спасти от нового, еще более разрушительного и масштабного инопланетного вторжения агрессивной расы, владеющей не менее продвинутыми технологиями. И только смелость нескольких героев, которые единственные могут спасти наш мир от уничтожения.
Качество: BDRip
Контейнер: MKV
Формат 3D: Anamorph OverUnder
Видео: h.264 1920x1080 (crop) ~14.7 Mbps
Аудио:
1. Русский - AC3 / 5.1 Ch / 640 kbps
2. Английский - AC3 / 5.1 Ch / 640 kbps
3. Русский - DTS / 5.1 Ch / 768 kbps (отдельным файлом)
4. Английский - DTS / 5.1 Ch / 1509 kbps (отдельным файлом)

Субтитры (text):
1. Русские - форсированные
2. Русские - полные
3. Английские - полные

Скриншоты

Media Info

Format : Matroska
Format version : Version 4 / Version 2
File size : 13.6 GiB
Duration : 1h 59mn
Overall bit rate mode : Variable
Overall bit rate : 16.3 Mbps
Movie name : INDEPENDENCE_DAY__RESURGENCE.Title800
Encoded date : UTC 2016-10-12 06:34:53
Writing application : mkvmerge v8.3.0 ('Over the Horizon') 64bit
Writing library : libebml v1.3.1 + libmatroska v1.4.2
Video
ID : 1
Format : AVC
Format/Info : Advanced Video Codec
Format profile : [email protected]
Format settings, CABAC : Yes
Format settings, GOP : M=3, N=24
Codec ID : V_MPEG4/ISO/AVC
Duration : 1h 59mn
Bit rate mode : Variable
Bit rate : 14.7 Mbps
Width : 1 920 pixels
Height : 1 080 pixels
Display aspect ratio : 16:9
Frame rate mode : Constant
Frame rate : 23.976 fps
Color space : YUV
Chroma subsampling : 4:2:0
Bit depth : 8 bits
Scan type : Progressive
Bits/(Pixel*Frame) : 0.296
Stream size : 12.3 GiB (90%)
Default : Yes
Forced : No
Color primaries : BT.709
Transfer characteristics : BT.709
Matrix coefficients : BT.709
Audio #1
ID : 2
Format : AC-3
Format/Info : Audio Coding 3
Mode extension : CM (complete main)
Format settings, Endianness : Big
Codec ID : A_AC3
Duration : 1h 59mn
Bit rate mode : Constant
Bit rate : 640 Kbps
Channel(s) : 6 channels
Channel positions : Front: L C R, Side: L R, LFE
Sampling rate : 48.0 KHz
Bit depth : 16 bits
Compression mode : Lossy
Stream size : 548 MiB (4%)
Language : Russian
Default : Yes
Forced : No
Audio #2
ID : 3
Format : AC-3
Format/Info : Audio Coding 3
Mode extension : CM (complete main)
Format settings, Endianness : Big
Codec ID : A_AC3
Duration : 1h 59mn
Bit rate mode : Constant
Bit rate : 640 Kbps
Channel(s) : 6 channels
Channel positions : Front: L C R, Side: L R, LFE
Sampling rate : 48.0 KHz
Bit depth : 16 bits
Compression mode : Lossy
Stream size : 548 MiB (4%)
Language : English
Default : No
Forced : No
Text #1
ID : 4
Format : UTF-8
Codec ID : S_TEXT/UTF8
Codec ID/Info : UTF-8 Plain Text
Title : Forced
Language : Russian
Default : Yes
Forced : No
Text #2
ID : 5
Format : UTF-8
Codec ID : S_TEXT/UTF8
Codec ID/Info : UTF-8 Plain Text
Title : full
Language : Russian
Default : No
Forced : No
Text #3
ID : 6
Format : UTF-8
Codec ID : S_TEXT/UTF8
Codec ID/Info : UTF-8 Plain Text
Title : full
Language : English
Default : No
Forced : No
Слева и справа обрезано по 248 пикселей, что позволяет смотреть на аппаратуре с соотношением сторон 16:9 без черных полос и без нарушения пропорций
Благодарности релизеру (131)

Торрент:

Статус:

Размер:

Зарегистрирован   [ 2016-10-12 16:29 ]

* не проверено

15.54 GB

 
 Мнение о фильме (54)

1, 2, 3  След.






Спасибо за оперативность и труды )
 

спасибо большое!
 

спасибо!!!!!!!
 

Спасибо за ваши труды.
 

Amstaff,
DTS дорогой не поделишься?
 

killer29, попозже. Тебе русскую или английскую?
 

Спасибище!!!!!!!!!!!!!!!!!!!!!
дождались!!!!!!!!!!!!!!!!!!!
 

killer29, попозже. Тебе русскую или английскую?
Все спасибо...уже нашел и прикрутил..
 

Как тут с озвучкой дела? т.е. можно смотреть или в дальнейшем будет офф дорога?
 

Дим46,
Это лицуха
 

killer29, думаю, надо будет приложить в раздачу дтс-ы...
 

Amstaff,
нужно было сразу это сделать...опять перехешировать надо будет...уж больно много пиров
 

а у меня не качает(
это может быть проблема вами выше описанная? Или снова у меня что-то с компом или роутером?
 

Дим46,
Не думаю..Зарегистрирован [ Сегодня 10:50 ]...попробуй еще раз торент файл скачать
 

ну подождем. Смарт тоже не качает, все висит на подключении к пирам
 

Дим46, я когда выложил у меня аж 50 качающих сразу возникло. Навряд ли щас никто не раздает.
 

 

та ерунда какая-то творится. То у меня все в порядке то нет. Раздавал еще пару днейц назад что-то и снова не качает ни в какую. Уже и роутер перезагрузил как в прошлый раз, тоьлко сейчас не помогло мне это..
настройки клиента проверил все работает.
Разберемся.
 

killer29 А не подскажете как подложить дорожку DTS к фильму
 

panvic, с помощью бесплатной mkvmerge - в интернете легко и ее найти и инструкции по применению.
 

Страница 1 из 3

1, 2, 3  След.