Торренты   
 
 

 

Охотники за привидениями / Ghostbusters (Пол Фиг) [2016 г., Anamorph OverUnder]

Рейтинг 3D:
21 голосов
7.4
Рейтинг фильма:
21 голосов
4.9
 
Вы должны быть авторизированы,
чтобы ставить оценки


Охотники за привидениями / Ghostbusters
Год выпуска: 2016
Страна: США, Австралия
Жанр: фантастика, фэнтези, боевик, комедия
Продолжительность: 1:49:04
Перевод: Профессиональный (полное дублирование)
Режиссер: Пол Фиг
В ролях: Мелисса МакКарти, Кристен Уиг, Кейт МакКиннон, Лесли Джонс, Крис Хемсворт, Сесили Стронг, Энди Гарсиа, Нил Кэйси, Чарльз Дэнс, Майкл Кеннет Уильямс, Мэтт Уолш, Майкл МакДональд
Описание: Тридцать лет назад охотники за привидениями спасли Нью-Йорк от нашествия призраков, но теперь городу вновь угрожает опасность. Былые герои не могут стать на его защиту, но находятся и другие отважные люди, всю свою жизнь посвятившие изучению паранормальных явлений. Эбби Йейтс объединяется с Эрин Гилберт, пожалуй лучшим специалистом в квантовой физике, и вместе они собирают команду новых охотников за привидениями, в которую принимают отличного инженера Джиллиан Хольцман, сотрудницу метрополитена Пэтти Толан, знающую город как свои пять пальцев, и секретаря - настоящего красавчика Кэвина. Вместе они начинают борьбу с нечистой силой, терроризирующей мегаполис...
Качество: BDRip
Контейнер: MKV
Формат 3D: Anamorph OverUnder
Видео: h.264 1920x1080 (crop) ~20.0 Mbps
Аудио:
1. Русский - AC3 / 5.1 Ch / 384 kbps (дубляж - iTunes)
2. Английский - AC3 / 5.1 Ch / 640 kbps
Субтитры (text):
1. Русские - полные
2. Английские - полные

Скриншоты

Media Info

Format : Matroska
Format version : Version 4 / Version 2
File size : 16.3 GiB
Duration : 1h 49mn
Overall bit rate : 21.5 Mbps
Movie name : GHOSTBUSTERS_3D_RMX_BLUEBIRD.Title0
Encoded date : UTC 2016-10-12 13:26:17
Writing application : mkvmerge v8.3.0 ('Over the Horizon') 64bit
Writing library : XviD4PSP 6.0 / 54.29.105
Video
ID : 1
Format : AVC
Format/Info : Advanced Video Codec
Format profile : [email protected]
Format settings, CABAC : Yes
Codec ID : V_MPEG4/ISO/AVC
Duration : 1h 49mn
Bit rate : 20.0 Mbps
Width : 1 920 pixels
Height : 1 080 pixels
Display aspect ratio : 16:9
Frame rate mode : Constant
Frame rate : 23.976 fps
Color space : YUV
Chroma subsampling : 4:2:0
Bit depth : 8 bits
Scan type : Progressive
Bits/(Pixel*Frame) : 0.402
Stream size : 15.2 GiB (93%)
Default : Yes
Forced : No
Audio #1
ID : 2
Format : AC-3
Format/Info : Audio Coding 3
Mode extension : CM (complete main)
Format settings, Endianness : Big
Codec ID : A_AC3
Duration : 1h 49mn
Bit rate mode : Constant
Bit rate : 384 Kbps
Channel(s) : 6 channels
Channel positions : Front: L C R, Side: L R, LFE
Sampling rate : 48.0 KHz
Bit depth : 16 bits
Compression mode : Lossy
Stream size : 300 MiB (2%)
Language : Russian
Default : Yes
Forced : No
Audio #2
ID : 3
Format : AC-3
Format/Info : Audio Coding 3
Mode extension : CM (complete main)
Format settings, Endianness : Big
Codec ID : A_AC3
Duration : 1h 49mn
Bit rate mode : Constant
Bit rate : 640 Kbps
Channel(s) : 6 channels
Channel positions : Front: L C R, Side: L R, LFE
Sampling rate : 48.0 KHz
Bit depth : 16 bits
Compression mode : Lossy
Delay relative to video : 27ms
Stream size : 499 MiB (3%)
Language : English
Default : No
Forced : No
Text #1
ID : 4
Format : UTF-8
Codec ID : S_TEXT/UTF8
Codec ID/Info : UTF-8 Plain Text
Language : Russian
Default : Yes
Forced : No
Text #2
ID : 5
Format : UTF-8
Codec ID : S_TEXT/UTF8
Codec ID/Info : UTF-8 Plain Text
Language : English
Default : No
Forced : No
Слева и справа обрезано по 245 пикселей, что позволяет смотреть на аппаратуре с соотношением сторон 16:9 без черных полос и без нарушения пропорций
Благодарности релизеру (99)

Торрент:

Статус:

Размер:

Зарегистрирован   [ 2016-10-12 18:29 ]

* не проверено

16.34 GB

 
 Мнение о фильме (15)





Жмем кнопочки благодарности, не стесняемся!
 

За рип конечно спасибо, но фильм редкий шлак...
 

так Мюррей и не согласился сниматься - зараза !
 

Сам фильм ужасен,за релиз спасибо.
 

Не смотрел еще, но Amstaff'у благодарность не знает границ, как Амазонка в период разлива! Спасибо тебе огромное!
 

Спасибо за фильм. По качеству в 3d на весь экран - фильм отличный. По содержанию - на любителя.
 

Это точно. Фильмец слабый. Тор вапще клоун.)
 

По качеству в 3d на весь экран - фильм отличный.
Вообще-то, в этом фильме при просмотре кропа вы потеряли огромные впечатления - почти весь фильм идут вылеты из экрана на чёрные полосы, а в одном моменте (в полёте) эти чёрные полосы ещё и наклоняют:

Скриншоты




 

ash61, cпасибо за наводку - придется перекачать с полосками ради вылетов ! ))
 

ash61, я об этом не знал т.к. не смотрел и смотреть не собирался. Не мой жанр.
 

ash61, огромное спасибо что отметил сий факт!!
 

Даже с полосами не собираюсь его смотреть второй раз, фильм чисто американский, тупой и простой, к тому же и юмор средний, но ради 3д конечно смотреть надо , в общем смотрибельно и не смешно!!!!
 

ash61, а где можно скачать с черными полосами этот фильм?
 

AndreyTsveer,
Отправил в ЛС
 

Разочарован. Лучше бы отдельную историю сделали, а не ремейк только с бабами. Тора (Криса Хемсворта) вообще имбицилом заделали, аж плеваться охота, ну как так можно испоганить такой фильм. Кароче еле досмотрел.