Торренты   
 
 

 

Lichtmond: The Journey [2016 г., Anamorph OverUnder]

Рейтинг 3D:
7 голосов
8.3
Рейтинг фильма:
7 голосов
7.0
 
Вы должны быть авторизированы,
чтобы ставить оценки


Lichtmond: The Journey
Год выпуска: 2016
Страна: Германия
Жанр: демо
Продолжительность: 00:53:38
Перевод - не требуется
Описание: This is exactly what we experience up close with the fourth LICHTMOND production „The Journey“ by the successful producers Giorgio and Martin Koppehele - more intensely, diversified and excitingly than ever before.
Partly surrealistic, partly realistic we enjoy the different elements of this new symbolic LICHTMOND world, which tells the story of becoming, changing and passing away in a complex, songaccompanied story.
With the main character, the „Live-Giver“, we fly into a beautiful landscape and see the „magic tree“ changing rapidly with the seasons and a year passing in a breathtaking speed.
Plants and objects are brought to life. A pyramid is the symbol for the small in the large – from a small magic object in the hand of the „Life Giver“ up to a huge space ship. Transcendent stairs rise into the sky within an architecture floating in the clouds.

Качество: BDRip
Контейнер: MKV
Формат 3D: Anamorph OverUnder
Видео: h.264 1920x1080 (crop) ~23.3 Mbps
Аудио:
1. DTS / 5.1 Ch / 1509 kbps
2. AC3 / 5.1 Ch / 640 kbps

Скриншоты

Media Info

Format : Matroska
Format version : Version 2
File size : 9.71 GiB
Duration : 53mn 38s
Overall bit rate mode : Variable
Overall bit rate : 25.9 Mbps
Movie name : LICHTMOND_-_THE_JOURNEY.Title0
Encoded date : UTC 2016-10-16 16:07:23
Writing library : libebml v0.7.8 + libmatroska v0.8.1
Video
ID : 1
Format : AVC
Format/Info : Advanced Video Codec
Format profile : High@L4.1
Format settings, CABAC : Yes
Format settings, GOP : M=3, N=24
Codec ID : V_MPEG4/ISO/AVC
Duration : 53mn 38s
Bit rate mode : Variable
Bit rate : 23.3 Mbps
Width : 1 920 pixels
Height : 1 080 pixels
Display aspect ratio : 16:9
Frame rate mode : Constant
Frame rate : 23.976 fps
Color space : YUV
Chroma subsampling : 4:2:0
Bit depth : 8 bits
Scan type : Progressive
Bits/(Pixel*Frame) : 0.468
Stream size : 8.72 GiB (90%)
Default : Yes
Forced : No
Color primaries : BT.709
Transfer characteristics : BT.709
Matrix coefficients : BT.709
Audio #1
ID : 2
Format : DTS
Format/Info : Digital Theater Systems
Mode : 16
Format settings, Endianness : Big
Codec ID : A_DTS
Duration : 53mn 38s
Bit rate mode : Constant
Bit rate : 1 509 Kbps
Channel(s) : 6 channels
Channel positions : Front: L C R, Side: L R, LFE
Sampling rate : 48.0 KHz
Bit depth : 24 bits
Compression mode : Lossy
Stream size : 579 MiB (6%)
Language : German
Default : Yes
Forced : No
Audio #2
ID : 3
Format : AC-3
Format/Info : Audio Coding 3
Mode extension : CM (complete main)
Format settings, Endianness : Big
Codec ID : A_AC3
Duration : 53mn 38s
Bit rate mode : Constant
Bit rate : 640 Kbps
Channel(s) : 6 channels
Channel positions : Front: L C R, Side: L R, LFE
Sampling rate : 48.0 KHz
Bit depth : 16 bits
Compression mode : Lossy
Stream size : 246 MiB (2%)
Language : German
Default : No
Forced : No
Благодарности релизеру (30)

Торрент:

Статус:

Размер:

Зарегистрирован   [ 2016-10-16 20:30 ]

* не проверено

9.71 GB