Торренты   
 
 

 

Чудеса Арктики / IMAX - Wonders of the Arctic (Дэвид Ликли) [2014 г., Anamorph OverUnder]

Рейтинг 3D:
3 голосов
7.3
Рейтинг фильма:
3 голосов
7.3
 
Вы должны быть авторизированы,
чтобы ставить оценки


Чудеса Арктики / IMAX - Wonders of the Arctic
Год выпуска: 2014
Страна: Канада
Жанр: документальный, короткометражка, видовой
Продолжительность: 00:41:40
Перевод: Отсутствует
Режиссер: Дэвид Ликли
В ролях: Виктор Гарбер (Рассказчик)
Описание: Арктика всегда была местом тайн, мифов и волшебства. Сегодня же Арктика - область активных исследований; вместо стремлений завоевать Север, ученые-пионеры ищут ответы на ключевые вопросы последствий воздействия человечества на хрупкий мир Земли.

Формат 3D: Anamorph OverUnder
Видео: h.264 1920x1080 ~ 18500 kbps
Аудио:
1. Английский - AC3 / 5.1 Ch / 640 kbps
Субтитры (text):
1. Английские - полные

Скриншоты

Media Info

Format : Matroska
Format version : Version 2
File size : 5.67 GiB
Duration : 41mn 40s
Overall bit rate mode : Variable
Overall bit rate : 19.5 Mbps
Movie name : IMAX_-_WONDERS_OF_THE_ARCTIC.Title22
Encoded date : UTC 2016-10-20 18:55:21
Writing library : libebml v0.7.8 + libmatroska v0.8.1
Video
ID : 1
Format : AVC
Format/Info : Advanced Video Codec
Format profile : High@L4.1
Format settings, CABAC : Yes
Format settings, GOP : M=3, N=24
Codec ID : V_MPEG4/ISO/AVC
Duration : 41mn 40s
Bit rate mode : Variable
Bit rate : 18.5 Mbps
Width : 1 848 pixels
Height : 1 040 pixels
Display aspect ratio : 16:9
Frame rate mode : Constant
Frame rate : 23.976 fps
Color space : YUV
Chroma subsampling : 4:2:0
Bit depth : 8 bits
Scan type : Progressive
Bits/(Pixel*Frame) : 0.401
Stream size : 5.38 GiB (95%)
Default : Yes
Forced : No
Color primaries : BT.709
Transfer characteristics : BT.709
Matrix coefficients : BT.709
Audio
ID : 2
Format : AC-3
Format/Info : Audio Coding 3
Mode extension : CM (complete main)
Format settings, Endianness : Big
Codec ID : A_AC3
Duration : 41mn 40s
Bit rate mode : Constant
Bit rate : 640 Kbps
Channel(s) : 6 channels
Channel positions : Front: L C R, Side: L R, LFE
Sampling rate : 48.0 KHz
Bit depth : 16 bits
Compression mode : Lossy
Stream size : 191 MiB (3%)
Language : English
Default : Yes
Forced : No
Text
ID : 3
Format : PGS
Codec ID : S_HDMV/PGS
Codec ID/Info : The same subtitle format used on BDs/HD-DVDs
Language : English
Default : No
Forced : No
Благодарности релизеру (10)

Торрент:

Статус:

Размер:

Зарегистрирован   [ 2016-10-20 23:11 ]

* не проверено

5.67 GB