Торренты   
 
 


Последний риф / IMAX - The Last Reef: Cities Beneath the Sea (Люк Крессвелл, Стив МакНиколас) [2012 г., Anamorph OverUnder]

Рейтинг 3D:
4 голосов
6.7
Рейтинг фильма:
4 голосов
4.5
 
Вы должны быть авторизированы,
чтобы ставить оценки


Последний риф / IMAX - The Last Reef: Cities Beneath the Sea
Год выпуска: 2012
Страна: США, Канада, Мексика, Палау, Французская Полинезия, Багамы
Жанр: документальный, видовой
Продолжительность: 00:39:54
Перевод: Отсутствует
Режиссер: Люк Крессвелл, Стив МакНиколас
Описание: Потрясающе красивый объемный фильм в формате Digital 3D от создателей фильма «Дикий океан», призванный показать людям экосистему, напоминающую по своей природе большой мегаполис, где разные животные объединяются и сосуществуют друг с другом. В фильме вас ожидает увлекательное путешествие в подводный мир океана и знакомство с обитателями рифов.
Формат 3D: Anamorph OverUnder
Видео: h.264 1920x1080 ~ 23500 kbps
Аудио:
1. Английский - AC3 / 5.1 Ch / 640 kbps
Субтитры (text):
1. Английские - полные

Скриншоты

Media Info

Format : Matroska
Format version : Version 2
File size : 6.88 GiB
Duration : 39mn 54s
Overall bit rate : 24.7 Mbps
Movie name : IMAX_-_THE_LAST_REEF_3D.Title22
Encoded date : UTC 2016-10-20 19:17:58
Writing library : libebml v0.7.8 + libmatroska v0.8.1
Video
ID : 1
Format : AVC
Format/Info : Advanced Video Codec
Format profile : High@L4.1
Format settings, CABAC : Yes
Codec ID : V_MPEG4/ISO/AVC
Duration : 39mn 54s
Bit rate : 23.5 Mbps
Width : 1 920 pixels
Height : 1 080 pixels
Display aspect ratio : 16:9
Frame rate mode : Constant
Frame rate : 23.976 fps
Color space : YUV
Chroma subsampling : 4:2:0
Bit depth : 8 bits
Scan type : Progressive
Bits/(Pixel*Frame) : 0.474
Stream size : 6.56 GiB (95%)
Default : Yes
Forced : No
Audio
ID : 2
Format : AC-3
Format/Info : Audio Coding 3
Mode extension : CM (complete main)
Format settings, Endianness : Big
Codec ID : A_AC3
Duration : 39mn 54s
Bit rate mode : Constant
Bit rate : 640 Kbps
Channel(s) : 6 channels
Channel positions : Front: L C R, Side: L R, LFE
Sampling rate : 48.0 KHz
Bit depth : 16 bits
Compression mode : Lossy
Stream size : 183 MiB (3%)
Language : English
Default : Yes
Forced : No
Text
ID : 3
Format : PGS
Codec ID : S_HDMV/PGS
Codec ID/Info : The same subtitle format used on BDs/HD-DVDs
Language : English
Default : No
Forced : No
Благодарности релизеру (19)

Торрент:

Статус:

Размер:

Зарегистрирован   [ 2016-10-20 23:31 ]

* не проверено

6.88 GB