Торренты   
 
 

 

Стартрек: Бесконечность / Star Trek Beyond (Джастин Лин) [2016 г., Anamorph OverUnder]

Рейтинг 3D:
13 голосов
7.4
Рейтинг фильма:
13 голосов
7.1
 
Вы должны быть авторизированы,
чтобы ставить оценки


Стартрек: Бесконечность / Star Trek Beyond
Год выпуска: 2016
Страна: США
Жанр: Боевик, Фантастика, Приключения
Продолжительность: 02:02:22
Перевод: Профессиональный (полное дублирование)
Режиссер: Джастин Лин
В ролях: Крис Пайн, Закари Куинто, Саймон Пегг, Карл Урбан, Зои Салдана, Джон Чо, Антон Ельчин, Идрис Эльба, София Бутелла, Джо Таслим
Описание: Бесстрашная команда крейсера Звездного Флота «Энтерпрайз» исследует неизведанные глубины космоса. Во время этого полного опасностей путешествия герои сталкиваются с таинственной силой, ставящей под угрозу не только их миссию и стабильность Федерации, но и весь миропорядок.
Качество: BDRip
Контейнер: MKV
Формат 3D: Anamorph OverUnder
Видео: h.264 1920x1080 (Crop) ~17.9 Mbps
Аудио:
1. Русский - AC3 / 5.1 Ch / 640 kbps (дубляж)
2. Английский - AC3 / 5.1 Ch / 640 kbps
3. Русский - DTS / 5.1 Ch / 1510 kbps (отдельным файлом)
Субтитры (text):
1. Русские - форсированные
2. Русские - полные
3. Английские - полные
Слева и справа обрезано по 245 пикселей, что позволяет смотреть на аппаратуре с соотношением сторон 16:9 без черных полос и без нарушения пропорций

Скриншоты

Media Info

Format : Matroska
Format version : Version 4 / Version 2
File size : 16.7 GiB
Duration : 2h 2mn
Overall bit rate mode : Variable
Overall bit rate : 19.5 Mbps
Movie name : STARTREK_BEYOND_3D_RMX_BLUEBIRD.Title0
Encoded date : UTC 2016-10-25 06:54:30
Writing application : mkvmerge v8.3.0 ('Over the Horizon') 64bit
Writing library : libebml v1.3.1 + libmatroska v1.4.2
Video
ID : 1
Format : AVC
Format/Info : Advanced Video Codec
Format profile : [email protected]
Format settings, CABAC : Yes
Format settings, GOP : M=3, N=24
Codec ID : V_MPEG4/ISO/AVC
Duration : 2h 2mn
Bit rate mode : Variable
Bit rate : 17.9 Mbps
Width : 1 920 pixels
Height : 1 080 pixels
Display aspect ratio : 16:9
Frame rate mode : Constant
Frame rate : 23.976 fps
Color space : YUV
Chroma subsampling : 4:2:0
Bit depth : 8 bits
Scan type : Progressive
Bits/(Pixel*Frame) : 0.359
Stream size : 15.3 GiB (91%)
Default : Yes
Forced : No
Color primaries : BT.709
Transfer characteristics : BT.709
Matrix coefficients : BT.709
Audio #1
ID : 2
Format : AC-3
Format/Info : Audio Coding 3
Mode extension : CM (complete main)
Format settings, Endianness : Big
Codec ID : A_AC3
Duration : 2h 2mn
Bit rate mode : Constant
Bit rate : 640 Kbps
Channel(s) : 6 channels
Channel positions : Front: L C R, Side: L R, LFE
Sampling rate : 48.0 KHz
Bit depth : 16 bits
Compression mode : Lossy
Delay relative to video : 27ms
Stream size : 560 MiB (3%)
Language : Russian
Default : Yes
Forced : No
Audio #2
ID : 3
Format : AC-3
Format/Info : Audio Coding 3
Mode extension : CM (complete main)
Format settings, Endianness : Big
Codec ID : A_AC3
Duration : 2h 2mn
Bit rate mode : Constant
Bit rate : 640 Kbps
Channel(s) : 6 channels
Channel positions : Front: L C R, Side: L R, LFE
Sampling rate : 48.0 KHz
Bit depth : 16 bits
Compression mode : Lossy
Stream size : 560 MiB (3%)
Language : English
Default : No
Forced : No
Text #1
ID : 4
Format : UTF-8
Codec ID : S_TEXT/UTF8
Codec ID/Info : UTF-8 Plain Text
Title : Forced
Language : Russian
Default : Yes
Forced : No
Text #2
ID : 5
Format : UTF-8
Codec ID : S_TEXT/UTF8
Codec ID/Info : UTF-8 Plain Text
Title : Full
Language : Russian
Default : No
Forced : No
Text #3
ID : 6
Format : UTF-8
Codec ID : S_TEXT/UTF8
Codec ID/Info : UTF-8 Plain Text
Title : SDH
Language : English
Default : No
Forced : No
Нажми одну из кнопок ниже, скажи с их помощью "спасибо"! Релизеру будет приятно!
Благодарности релизеру (174)

Торрент:

Статус:

Размер:

Зарегистрирован   [ 2016-10-25 11:07 ]

* не проверено

17.99 GB

 
 Мнение о фильме (10)





Фильм отличный. Большое спасибо!
 

Огромное спасибо!!!!
 

Жаль не кастрированный не выложили. :(
 

Fig, Вы о чем?
 

Fig,
А гугл для чего?
 

Большое спасибо за труды и хороший релиз!
 

Спасибо большое!
 

Скорости нет
 

ТС дай докачать
 

Фильм понравился. а вот 3Д есть но почему то не зацепил.
качать советую.