Торренты   
 
 

 

В поисках Дори / Finding Dory (Эндрю Стэнтон, Энгус МакЛэйн) [2016 г., Anamorph OverUnder]

Рейтинг 3D:
11 голосов
8.0
Рейтинг фильма:
11 голосов
7.5
 
Вы должны быть авторизированы,
чтобы ставить оценки


В поисках Дори / Finding Dory
Год выпуска: 2016
Страна: США / Pixar Animation Studios, Walt Disney Pictures
Жанр: Мультфильм, Комедия, Приключения, Семейный
Продолжительность: 01:37:04
Перевод: Профессиональный (полное дублирование)
Режиссер: Эндрю Стэнтон, Энгус МакЛэйн
В ролях: Эллен ДеДженерес, Альберт Брукс, Эд О’Нил, Кэйтлин Олсон, Хайден Роуленс, Тай Бурелл, Дайан Китон, Юджин Леви, Слоун Мюррэй, Идрис Эльба
Описание: Дори — синяя доброжелательная рыбка-хирург, страдающая провалами в памяти. Она упорно стремится избавиться от своего недуга и найти свою семью.
Качество: BDRip
Контейнер: MKV
Формат 3D: Anamorph OverUnder
Видео: h.264 1920x1080 ~13.9 Mbps
Аудио:
1. Русский - AC3 / 5.1 Ch / 384 kbps (iTunes)
2. Английский - AC3 / 5.1 Ch / 640 kbps
3. Английский - DTS / 5.1 Ch / 1509 kbps (отдельным файлом)

Субтитры (text):
1. Русские - полные
2. Английские - полные

Скриншоты

Media Info

Format : Matroska
Format version : Version 4 / Version 2
File size : 10.3 GiB
Duration : 1h 37mn
Overall bit rate : 15.2 Mbps
Movie name : FINDING_DORY_3D.Title0
Encoded date : UTC 2016-10-27 12:50:11
Writing application : mkvmerge v8.3.0 ('Over the Horizon') 64bit
Writing library : XviD4PSP 6.0 / 54.29.105
Video
ID : 1
Format : AVC
Format/Info : Advanced Video Codec
Format profile : High@L4.1
Format settings, CABAC : Yes
Format settings, ReFrames : 2 frames
Codec ID : V_MPEG4/ISO/AVC
Duration : 1h 37mn
Bit rate : 13.9 Mbps
Width : 1 920 pixels
Height : 1 080 pixels
Display aspect ratio : 16:9
Frame rate mode : Constant
Frame rate : 23.976 fps
Color space : YUV
Chroma subsampling : 4:2:0
Bit depth : 8 bits
Scan type : Progressive
Bits/(Pixel*Frame) : 0.279
Stream size : 9.42 GiB (91%)
Default : Yes
Forced : No
Audio #1
ID : 2
Format : AC-3
Format/Info : Audio Coding 3
Mode extension : CM (complete main)
Format settings, Endianness : Big
Codec ID : A_AC3
Duration : 1h 37mn
Bit rate mode : Constant
Bit rate : 384 Kbps
Channel(s) : 6 channels
Channel positions : Front: L C R, Side: L R, LFE
Sampling rate : 48.0 KHz
Bit depth : 16 bits
Compression mode : Lossy
Stream size : 267 MiB (3%)
Language : Russian
Default : Yes
Forced : No
Audio #2
ID : 3
Format : AC-3
Format/Info : Audio Coding 3
Mode extension : CM (complete main)
Format settings, Endianness : Big
Codec ID : A_AC3
Duration : 1h 37mn
Bit rate mode : Constant
Bit rate : 640 Kbps
Channel(s) : 6 channels
Channel positions : Front: L C R, Side: L R, LFE
Sampling rate : 48.0 KHz
Bit depth : 16 bits
Compression mode : Lossy
Delay relative to video : 27ms
Stream size : 444 MiB (4%)
Language : English
Default : No
Forced : No
Text #1
ID : 4
Format : UTF-8
Codec ID : S_TEXT/UTF8
Codec ID/Info : UTF-8 Plain Text
Language : Russian
Default : No
Forced : No
Text #2
ID : 5
Format : UTF-8
Codec ID : S_TEXT/UTF8
Codec ID/Info : UTF-8 Plain Text
Language : English
Default : No
Forced : No
Нажми одну из кнопок ниже, скажи с их помощью "спасибо"! Релизеру будет приятно!
Благодарности релизеру (110)

Торрент:

Статус:

Размер:

Зарегистрирован   [ 2016-10-27 17:42 ]

* не проверено

11.34 GB

 
 Мнение о фильме (8)





Спасибо за безупречное качество мультфильма. Фильм увлекательный,добрый.
 

Спасибо!
Как всегда все прекрасно!
 

Спасибо.
 

слабее первого малость... но все равно интересный.
 

огромное спасибо!!!!!
 

Мультфильм гадость редкостная.Просто воспользовались громким успехом В поисках Немо.
 

спасибо
 

спасибо