Торренты   
 
 

 

Звёздные войны: Пробуждение силы / Star Wars: Episode VII - The Force Awakens (Джей Джей Абрамс) [2015 г., Anamorph OverUnder]

Рейтинг 3D:
20 голосов
8.1
Рейтинг фильма:
22 голосов
6.1
 
Вы должны быть авторизированы,
чтобы ставить оценки


Звёздные войны: Пробуждение силы / Star Wars: Episode VII - The Force AwakensГод выпуска: 2015
Страна: США
Жанр: фантастика, фэнтези, боевик, приключения
Продолжительность: 02:18:06
Перевод: Профессиональный (полное дублирование)
Режиссер: Джей Джей Абрамс
В ролях: Джон Бойега, Дэйзи Ридли, Оскар Айзек, Адам Драйвер, Донал Глисон, Харрисон Форд, Марк Хэмилл, Кэрри Фишер, Макс фон Сюдов, Энди Серкис
Описание: Через тридцать лет после гибели Дарта Вейдера и Императора галактика по-прежнему в опасности. Государственное образование Первый Орден во главе с таинственным верховным лидером Сноуком и его правой рукой Кайло Реном идёт по стопам Империи, пытаясь захватить всю власть. В это нелёгкое время судьба сводит юную девушку Рей и бывшего штурмовика Первого Ордена Финна с героями войны с Империей - Ханом Соло, Чубаккой и генералом Леей. Вместе они должны дать бой Первому Ордену, однако настаёт тот момент, когда становится очевидно, что лишь джедаи могут остановить Сноука и Кайло Рена.
Качество: BDRip
Контейнер: MKV
Формат 3D: Anamorph OverUnder
Видео: h.264 1920x1080 (crop) ~13.9 Mbps
Аудио:
1. Русский - AC3 / 5.1 Ch / 640 kbps
2. Английский - AC3 / 5.1 Ch / 640 kbps
3. Английский - DTS / 5.1 Ch / 1509 kbps (отдельным файлом)

Субтитры (text):
1. Русские - форсированные
2. Английские - полные

Слева и справа обрезано по 248 пикселей, что позволяет смотреть на аппаратуре с соотношением сторон 16:9 без черных полос и без нарушения пропорций

Скриншоты

Media Info

Format : Matroska
Format version : Version 4 / Version 2
File size : 15.0 GiB
Duration : 2h 18mn
Overall bit rate mode : Variable
Overall bit rate : 15.5 Mbps
Movie name : THE_FORCE_AWAKENS_-_BLU-RAYв„ў.Title800
Encoded date : UTC 2016-10-28 11:49:50
Writing application : mkvmerge v8.3.0 ('Over the Horizon') 64bit
Video
ID : 1
Format : AVC
Format/Info : Advanced Video Codec
Format profile : [email protected]
Format settings, CABAC : Yes
Format settings, GOP : M=3, N=24
Codec ID : V_MPEG4/ISO/AVC
Duration : 2h 18mn
Bit rate mode : Variable
Bit rate : 13.9 Mbps
Width : 1 920 pixels
Height : 1 080 pixels
Display aspect ratio : 16:9
Frame rate mode : Constant
Frame rate : 23.976 fps
Color space : YUV
Chroma subsampling : 4:2:0
Bit depth : 8 bits
Scan type : Progressive
Bits/(Pixel*Frame) : 0.280
Stream size : 13.4 GiB (90%)
Default : Yes
Forced : No
Color primaries : BT.709
Transfer characteristics : BT.709
Matrix coefficients : BT.709
Audio #1
ID : 2
Format : AC-3
Format/Info : Audio Coding 3
Mode extension : CM (complete main)
Format settings, Endianness : Big
Codec ID : A_AC3
Duration : 2h 18mn
Bit rate mode : Constant
Bit rate : 640 Kbps
Channel(s) : 6 channels
Channel positions : Front: L C R, Side: L R, LFE
Sampling rate : 48.0 KHz
Bit depth : 16 bits
Compression mode : Lossy
Stream size : 632 MiB (4%)
Language : Russian
Default : Yes
Forced : No
Audio #2
ID : 3
Format : AC-3
Format/Info : Audio Coding 3
Mode extension : CM (complete main)
Format settings, Endianness : Big
Codec ID : A_AC3
Duration : 2h 18mn
Bit rate mode : Constant
Bit rate : 640 Kbps
Channel(s) : 6 channels
Channel positions : Front: L C R, Side: L R, LFE
Sampling rate : 48.0 KHz
Bit depth : 16 bits
Compression mode : Lossy
Delay relative to video : 27ms
Stream size : 632 MiB (4%)
Language : English
Default : No
Forced : No
Text #1
ID : 4
Format : UTF-8
Codec ID : S_TEXT/UTF8
Codec ID/Info : UTF-8 Plain Text
Title : Forced
Language : Russian
Default : Yes
Forced : No
Text #2
ID : 5
Format : UTF-8
Codec ID : S_TEXT/UTF8
Codec ID/Info : UTF-8 Plain Text
Title : SDH
Language : English
Default : No
Forced : No
Нажми одну из кнопок ниже, скажи с их помощью "спасибо"! Релизеру будет приятно!
Благодарности релизеру (174)

Торрент:

Статус:

Размер:

Зарегистрирован   [ 2016-10-28 16:49 ]

* не проверено

16.42 GB

 
 Мнение о фильме (15)





Я блин год ждал этого момента, специально не смотрел фильм!!
Думал кстати, что не вывезу и на днях в 2d посмотрю, ан нет, качаю, ура
+1
 

ОГРОМНОЕ СПАСИБО ЗА ВАШИ РАБОТЫ!!!
 

Спасибо
 

Мечтаю посмотреть 3D-версии "Звездных войн" 1-6. Я имею ввиду профессиональные студийные 3D-адаптации вроде фильмов: Top Gun, I Robot, Titanic. Интересно, это сделают когда-нибудь?.. А что касается 7-го эпизода, видел пока в 2D - разочарован в сюжете. Гляну в 3D, техническую оценку поставлю позже.
 

наконец то!!!!!!!!! СПАСИБО!!!!!
 

Большое спасибо за интересный и увлекательный фильм. Смотреть фильм в 3D на весь экран - это просто "фантастика".
 

НАКОНЕЦ-ТО!!!!!!!!!!!!!!!!!!! СПАСИБО!!!!!!!!!!!!! =***************
 

спасибо
 

СПАСИБООООООО
 

это просто нечто!!!!!
это просто нечто бездарное 100 долларовое кино.
в фильме просто нет сценария и смысла. тащат его просто шаблонами и заслугами первых 6 частей. набрали кучу бездарных и не харизматичных актеров.
Массовые сцены это что то отдельное. Бои двух мировых держав а в небе стреляются по 20 истребителей с каждой стороны. посмотрите блин День независимости первую часть там наверное летательных аппаратов миллион на экране.
ну и самое главное что взбесило - фильм снят по чисто американскому шаблону - главные герои кричат во все стороны "никто кроме нас не справиться" ну и лезут в бой не сотни солдатов а парочка главных героев. Вот до этого не могли два человека победить а тут на блин победили.
поставил 1 балл фильму. Предыдущим 6 фильмам это убожество даже в подметки не годится.
Любимая сцена всех мемов "почувствуй мою мощь" в десятки раз краше и убедительнее чем этот весь фильм!!!
 

Да... странное чувство после просмотра но самое главное это дежа вю , снято конечно красочно и 3D в норме ну сценарий УЖАС !!!
Набрали много кусков и даже с пародировали много сцен из прошлых частей и вот вам седьмая часть.
Разочарование и только....
 

Wudu, "никто кроме нас не справиться" ))))))
 

М-да... А ведь фильмец-то провальный! Если б не 6 предыдущих фильмов, не мультсериалы, не целая Вселенная "Звездных войн", то не собрать ему и 1% от нахапанных 2 млрд.$... Сценарий самым бессовестным образом паразитирует на сюжете 4-6 эпизодов, только выглядит это жалкой пародией. Постаревшие на 30 лет герои 4-6 эпизодов, двигаясь по стариковски, просто смешны в роли единственных спасителей Галактики, а главные злодеи - генерал-клоун, плаксивый мальчик в противогазе (лучше б он его вообще никогда не снимал) и гигантская голограмма (которая, подозреваю, в 8 или 9 эпизоде окажется размером со скунса) - это просто издевательское неуважение к Темной стороне Силы.
Что мы имеем в итоге? - Бабло побеждает и Зло, и Добро.
 

Большое спасибо.
 
Виталий Цыганов Профиль 08-Ноя-2016 15:51

Большое спасибо. Мне понравилось.
 
Виталий Цыганов Профиль 13-Ноя-2016 11:58