Торренты   
 
 

 

В поисках Дори в 3Д / Finding Dory 3D (Эндрю Стэнтон, Энгус МакЛэйн / Andrew Stanton, Angus MacLane) [2016, Мультфильм, Комедия, Приключения, Семейный, BDrip, 1080p]Full OverUnder / Вертикальная стереопара

Рейтинг 3D:
3 голосов
7.7
Рейтинг фильма:
3 голосов
8.3
 
Вы должны быть авторизированы,
чтобы ставить оценки


В поисках Дори / Finding Dory
Год выпуска: 2016
Страна: США (Walt Disney Company, Pixar Animation Studios)
Жанр: Мультфильм, Комедия, Приключения, Семейный
Продолжительность: 01:37:04
Перевод: Профессиональный дублированный(лицензия)
Русские субтитры: нет
Режиссер: Эндрю Стэнтон, Энгус МакЛэйн / Andrew Stanton, Angus MacLane
В ролях: Эллен ДеДженерес, Альберт Брукс, Эд О’Нил, Кэйтлин Олсон, Хайден Роуленс, Тай Бурелл, Дайан Китон, Юджин Леви, Слоун Мюррэй, Идрис Эльба.
Описание: Дори — синяя доброжелательная рыбка-хирург, страдающая провалами в памяти. Она упорно стремится избавиться от своего недуга и найти свою семью.
Сэмпл: http://sendfile.su/1283462
Качество: BDrip
Контейнер: MKV
Формат 3D: OverUnder / Вертикальная стереопара
Порядок ракурсов: левый ракурс первый
Видео кодек: x264
Аудио кодек: AC3
Видео: AVC / High@L5.0 / 23,976 fps / 1920х2160 / 20,5 Мбит/сек
Аудио: Русский / AC3 / 48 KHz / 5.1 ch / 640 Кбит/сек(лицензия)
Аудио 2: Английский / AC3 / 48 KHz / 5.1 ch / 640 Кбит/сек
Релиз группы: ВНИМАНИЕ ! На встроенных ТВ-плеерах работать не будет!!!
ТВ Samsung в названии которого есть надпись Ultra HD , и LG Ultra HD 800 серии, Xiaomi Mi TV 2 воспроизводят полные стереопары встроенными плеерами
Железные плееры на которых воспроизводятся полные стереопары:Popcorn C-200 , Dune HD Smart D1 , Dune HD DUO , Dune HD Smart H1 , Dune HD Smart B1 , Dune HD Max , Dune HD TV-303D , Dune HD Base 3D, Philips HMP7001, Aura HD
Чтобы изображение было на весь экран в плеере выставляем, если рип 1920х1600 - то выставляем 2.35:1 , если 1920х2160 - то выставляем 16:9
18.11.2016. Релиз обновлён - русская звуковая дорожка iTunes заменена на лицензию.
Желающие, скачайте заново торрент-файл.

MediaInfo

Общее
Уникальный идентификатор : 245736204970826429855553894831265595095 (0xB8DF125194F09209B1E3E63FBF9EBED7)
Полное имя : E:\закачки\Finding Dory.Rip by SeRoGa00.mkv
Формат : Matroska
Версия формата : Version 2
Размер файла : 15,1 Гбайт
Продолжительность : 1 ч. 37 м.
Общий поток : 22,2 Мбит/сек
Дата кодирования : UTC 2016-11-18 07:06:42
Программа кодирования : mkvmerge v3.4.0 ('Rapunzel') сборка от May 15 2010 09:38:20
Библиотека кодирования : libebml v0.8.0 + libmatroska v0.9.0
Видео
Идентификатор : 1
Формат : AVC
Формат/Информация : Advanced Video Codec
Профиль формата : High@L5.0
Параметр CABAC формата : Да
Параметр ReFrames формата : 4 кадра
Идентификатор кодека : V_MPEG4/ISO/AVC
Продолжительность : 1 ч. 37 м.
Битрейт : 20,5 Мбит/сек
Ширина : 1920 пикселей
Высота : 2160 пикселей
Соотношение сторон : 0,889
Частота кадров : 23,976 кадра/сек
Цветовое пространство : YUV
Субдискретизация насыщенности : 4:2:0
Битовая глубина : 8 бит
Тип развёртки : Прогрессивная
Бит/(Пиксели*Кадры) : 0.206
Размер потока : 13,9 Гбайт (92%)
Заголовок : Rip by SeRoGa00
Библиотека кодирования : x264 core 148 r2638 7599210
Настройки программы : cabac=1 / ref=4 / deblock=1:-3:-3 / analyse=0x3:0x113 / me=umh / subme=10 / psy=1 / psy_rd=1.00:0.15 / mixed_ref=1 / me_range=24 / chroma_me=1 / trellis=2 / 8x8dct=1 / cqm=0 / deadzone=21,11 / fast_pskip=1 / chroma_qp_offset=-3 / threads=9 / lookahead_threads=2 / sliced_threads=0 / nr=0 / decimate=1 / interlaced=0 / bluray_compat=0 / constrained_intra=0 / bframes=10 / b_pyramid=2 / b_adapt=2 / b_bias=0 / direct=3 / weightb=1 / open_gop=0 / weightp=2 / keyint=250 / keyint_min=23 / scenecut=40 / intra_refresh=0 / rc_lookahead=60 / rc=crf / mbtree=1 / crf=18.0 / qcomp=0.60 / qpmin=10 / qpmax=69 / qpstep=4 / vbv_maxrate=40000 / vbv_bufsize=40000 / crf_max=0.0 / nal_hrd=none / filler=0 / ip_ratio=1.40 / aq=1:1.00
Язык : English
Default : Нет
Forced : Нет
Аудио #1
Идентификатор : 2
Формат : AC-3
Формат/Информация : Audio Coding 3
Расширение режима : CM (complete main)
Параметр Endianness формата : Big
Идентификатор кодека : A_AC3
Продолжительность : 1 ч. 37 м.
Вид битрейта : Постоянный
Битрейт : 640 Кбит/сек
Каналы : 6 каналов
Расположение каналов : Front: L C R, Side: L R, LFE
Частота : 48,0 КГц
Битовая глубина : 16 бит
Метод сжатия : С потерями
Размер потока : 444 Мбайт (3%)
Язык : Russian
Default : Да
Forced : Нет
Аудио #2
Идентификатор : 3
Формат : AC-3
Формат/Информация : Audio Coding 3
Расширение режима : CM (complete main)
Параметр Endianness формата : Big
Идентификатор кодека : A_AC3
Продолжительность : 1 ч. 37 м.
Вид битрейта : Постоянный
Битрейт : 640 Кбит/сек
Каналы : 6 каналов
Расположение каналов : Front: L C R, Side: L R, LFE
Частота : 48,0 КГц
Битовая глубина : 16 бит
Метод сжатия : С потерями
Размер потока : 444 Мбайт (3%)
Язык : English
Default : Нет
Forced : Нет

Скриншоты


Благодарности релизеру (10)

Торрент:

Статус:

Размер:

Зарегистрирован   [ 2016-11-18 15:32 ]

* не проверено

15.06 GB