Торренты   
 
 

 

Тайная жизнь домашних животных / The Secret Life of Pets (Крис Рено, Ярроу Чейни) [2016 г., Anamorph OverUnder]

Рейтинг 3D:
10 голосов
7.6
Рейтинг фильма:
10 голосов
6.4
 
Вы должны быть авторизированы,
чтобы ставить оценки


Тайная жизнь домашних животных / The Secret Life of Pets
Год выпуска: 2016
Страна: Япония, США (Illumination Entertainment, Universal Pictures)
Жанр: Мультфильм, комедия, приключения, семейный
Продолжительность: 01:26:27
Перевод: Профессиональный (полное дублирование)
Режиссер: Крис Рено, Ярроу Чейни
Описание: Что делают домашние животные пока хозяева пропадают на работе? С тоской смотрят в окно? Смиренно дремлют на коврике у двери? Как бы не так. Они ведут свою тайную жизнь. Сюжет повествует о Кэти и её питомце псе Максе, который привык быть единственным любимцем своей хозяйки Кэтти. Живут они душа в душу, как лучшие друзья. Но, в один прекрасный момент идиллия прекращается, ведь в дом приводят нового питомца — Дюка. И Макс начинает недолюбливать соседа, еще бы, ведь Дюк забирает внимание хозяйки на себя, да что он вообще себе позволяет? Макс решает проучить Дюка, и избавится от него, чтобы любовь Кэтти вновь доставалась лишь ему одному, в результате чего оба оказываются далеко от дома и теперь им придется как-то взаимодействовать друг с другом, чтобы вместе найти дорогу домой...
Качество: BDRip
Контейнер: MKV
Формат 3D: Anamorph OverUnder
Видео: h.264 1920x1080 (crop) ~14.9 Mbps
Аудио:
1. Русский - AC3 / 5.1 Ch / 640 kbps (чистый звук)
2. Английский - AC3 / 5.1 Ch / 640 kbps

Субтитры (text):
1. Английские - полные

Скриншоты

Media Info

Format : Matroska
Format version : Version 4 / Version 2
File size : 9.99 GiB
Duration : 1h 26mn
Overall bit rate mode : Variable
Overall bit rate : 16.6 Mbps
Movie name : THE.SECRET.LIFE.OF.PETS.2016.Title0
Encoded date : UTC 2016-11-12 10:35:48
Writing application : mkvmerge v8.3.0 ('Over the Horizon') 64bit
Writing library : libebml v1.3.1 + libmatroska v1.4.2
Video
ID : 1
Format : AVC
Format/Info : Advanced Video Codec
Format profile : [email protected]
Format settings, CABAC : Yes
Format settings, GOP : M=3, N=24
Codec ID : V_MPEG4/ISO/AVC
Duration : 1h 26mn
Bit rate mode : Variable
Bit rate : 14.9 Mbps
Width : 1 920 pixels
Height : 1 080 pixels
Display aspect ratio : 16:9
Frame rate mode : Constant
Frame rate : 23.976 fps
Color space : YUV
Chroma subsampling : 4:2:0
Bit depth : 8 bits
Scan type : Progressive
Bits/(Pixel*Frame) : 0.301
Stream size : 9.02 GiB (90%)
Default : Yes
Forced : No
Color primaries : BT.709
Transfer characteristics : BT.709
Matrix coefficients : BT.709
Audio #1
ID : 2
Format : AC-3
Format/Info : Audio Coding 3
Mode extension : CM (complete main)
Format settings, Endianness : Big
Codec ID : A_AC3
Duration : 1h 26mn
Bit rate mode : Constant
Bit rate : 640 Kbps
Channel(s) : 6 channels
Channel positions : Front: L C R, Side: L R, LFE
Sampling rate : 48.0 KHz
Bit depth : 16 bits
Compression mode : Lossy
Delay relative to video : 24ms
Stream size : 396 MiB (4%)
Language : Russian
Default : Yes
Forced : No
Audio #2
ID : 3
Format : AC-3
Format/Info : Audio Coding 3
Mode extension : CM (complete main)
Format settings, Endianness : Big
Codec ID : A_AC3
Duration : 1h 26mn
Bit rate mode : Constant
Bit rate : 640 Kbps
Channel(s) : 6 channels
Channel positions : Front: L C R, Side: L R, LFE
Sampling rate : 48.0 KHz
Bit depth : 16 bits
Compression mode : Lossy
Stream size : 396 MiB (4%)
Language : English
Default : No
Forced : No
Text
ID : 4
Format : UTF-8
Codec ID : S_TEXT/UTF8
Codec ID/Info : UTF-8 Plain Text
Title : SDH
Language : English
Default : No
Forced : No

Слева и справа обрезано по 39 пикселей, что позволяет смотреть на аппаратуре с соотношением сторон 16:9 без черных полос и без нарушения пропорций
Благодарности релизеру (51)

Торрент:

Статус:

Размер:

Зарегистрирован   [ 2016-11-12 13:37 ]

* не проверено

9.99 GB

 
 Мнение о фильме (6)





Если у вас был сбой в скачивании - начните скачивание снова: у меня винда падала.
 

сПАСИБО!!!!!!!!!!!!!!!!СУПЕР!!!!!!!!!!!!
 

Шпасибо за релиз. Шмеялся над шютками. Мульт норм.
 

Спасибо за фильм. Отличный мультфильм. Качество в 3D на весь экран-безупречное.
 

Amstaff,
5.1 / 48 kHz / 384 kbps / DN -4dB (дубляж iTunes) не будешь менять?...или ждем лицуху?
P/S
Я не достал тебя?
 

killer29, если честно - просто в лом менять...)))
ждем лицензию.