Торренты   
 
 

 

Большой и добрый великан / The BFG (Стивен Спилберг) [2016 г., Anamorph OverUnder]

Рейтинг 3D:
6 голосов
7.6
Рейтинг фильма:
5 голосов
6.0
 
Вы должны быть авторизированы,
чтобы ставить оценки


Большой и добрый великан / The BFG
Год выпуска: 2016
Страна: Великобритания, Канада, США (Amblin Entertainment, Reliance Entertainment)
Жанр: Фэнтези, Приключения, Семейный
Продолжительность: 01:57:09
Перевод: Профессиональный дублированный - iTunes
Режиссер: Стивен Спилберг
В ролях: Марк Райлэнс, Руби Барнхилл, Пенелопа Уилтон, Джемейн Клемент, Ребекка Холл, Рейф Сполл, Билл Хейдер, Оулавюр Дарри Оулафссон, Адам Годли, Майкл Адамуэйт
Описание: В центре истории девочка по имени Софи, которая не смогла заснуть до полуночи и в окошко увидела огромного великана, который подходил к соседним домам и начинал дуть в окна спален. В полном соответствии со старинными поверьями и детскими страшилками, великан увидел Софи и унес к себе домой, в страну великанов.
Как оказалось, он в этой самой стране был единственным добрым великаном: действуя в обстановке строжайшей секретности, он коллекционировал хорошие сны, которые по ночам раздавал детям. Уши у него устроены таким образом, что он слышит, что и о чем снится ребятам, и никогда не позволяет им видеть кошмары.
Качество: BDRip (by Ash61)
Контейнер: MKV
Формат 3D: Half OverUnder / Вертикальная анаморфная стереопара
Порядок ракурсов: левый ракурс первый
Видео: AVC / 1920х1080p / 23,976 fps / 8609 Kbps
Аудио:
#1 - Русский / AC3 / 48 KHz / 5.1 ch / 384 Kbps (Дубляж - iTunes)
#2 - Английский / AC3 / 48 KHz / 5.1 ch / 640 Kbps (Original - BD 3D UK)
)
Субтитры (SRT):
Вшитые (softsub):
#1 - Русские Форсированные [iTunes, расширенные] (включены по умолчанию)
#2 - Русские Полные [iTunes, расширенные]
#3 - English Full
#4 - English SDH
Внешние (UTF-8):
#1 - Русские Форсированные [iTunes, расширенные] (включены по умолчанию)

Скриншоты



Media Info

General
Unique ID : 227226369972742046000123218966465223270 (0xAAF234FE822DA8F4B64B35390C801A66)
Complete name : TheBFG(2016)3D-halfOU(Ash61)iTunes\TheBFG(2016)3D-halfOU(Ash61)iTunes.mkv
Format : Matroska
Format version : Version 2
File size : 8.04 GiB
Duration : 1h 57mn
Overall bit rate : 9 829 Kbps
Movie name : Большой и добрый великан / The BFG (2016) в 3Д
Encoded date : UTC 2016-12-06 17:16:50
Writing application : mkvmerge v5.8.0 ('No Sleep / Pillow') built on Sep 2 2012 15:37:04
Writing library : libebml v1.2.3 + libmatroska v1.3.0
Video
ID : 1
Format : AVC
Format/Info : Advanced Video Codec
Format profile : High@L4.1
Format settings, CABAC : Yes
Format settings, ReFrames : 4 frames
Codec ID : V_MPEG4/ISO/AVC
Duration : 1h 57mn
Bit rate : 8 610 Kbps
Width : 1 920 pixels
Height : 1 080 pixels
Display aspect ratio : 16:9
Frame rate : 23.976 fps
Color space : YUV
Chroma subsampling : 4:2:0
Bit depth : 8 bits
Scan type : Progressive
Bits/(Pixel*Frame) : 0.173
Stream size : 7.05 GiB (88%)
Title : BDRip by Ash61 (from BD 3D UK)
Writing library : x264 core 146 r2538 121396c
Encoding settings : cabac=1 / ref=4 / deblock=1:-3:-3 / analyse=0x3:0x113 / me=umh / subme=10 / psy=1 / psy_rd=1.00:0.00 / mixed_ref=1 / me_range=32 / chroma_me=1 / trellis=2 / 8x8dct=1 / cqm=0 / deadzone=21,11 / fast_pskip=1 / chroma_qp_offset=-2 / threads=12 / lookahead_threads=2 / sliced_threads=0 / nr=0 / decimate=1 / interlaced=0 / bluray_compat=0 / constrained_intra=0 / bframes=9 / b_pyramid=2 / b_adapt=2 / b_bias=0 / direct=3 / weightb=1 / open_gop=0 / weightp=2 / keyint=250 / keyint_min=23 / scenecut=40 / intra_refresh=0 / rc_lookahead=60 / rc=crf / mbtree=1 / crf=15.5 / qcomp=0.70 / qpmin=0 / qpmax=69 / qpstep=4 / vbv_maxrate=40000 / vbv_bufsize=30000 / crf_max=0.0 / nal_hrd=none / filler=0 / frame-packing=4 / ip_ratio=1.40 / aq=1:0.70
Language : English
Default : Yes
Forced : No
Audio #1
ID : 2
Format : AC-3
Format/Info : Audio Coding 3
Mode extension : CM (complete main)
Codec ID : A_AC3
Duration : 1h 57mn
Bit rate mode : Constant
Bit rate : 384 Kbps
Channel(s) : 6 channels
Channel positions : Front: L C R, Side: L R, LFE
Sampling rate : 48.0 KHz
Bit depth : 16 bits
Compression mode : Lossy
Stream size : 322 MiB (4%)
Title : Дубляж - iTunes
Language : Russian
Default : Yes
Forced : No
Audio #2
ID : 3
Format : AC-3
Format/Info : Audio Coding 3
Mode extension : CM (complete main)
Codec ID : A_AC3
Duration : 1h 57mn
Bit rate mode : Constant
Bit rate : 640 Kbps
Channel(s) : 6 channels
Channel positions : Front: L C R, Side: L R, LFE
Sampling rate : 48.0 KHz
Bit depth : 16 bits
Compression mode : Lossy
Stream size : 536 MiB (7%)
Title : Original - BD 3D UK
Language : English
Default : No
Forced : No
Text #1
ID : 4
Format : UTF-8
Codec ID : S_TEXT/UTF8
Codec ID/Info : UTF-8 Plain Text
Title : Форсированные - iTunes (расширенные)
Language : Russian
Default : Yes
Forced : No
Text #2
ID : 5
Format : UTF-8
Codec ID : S_TEXT/UTF8
Codec ID/Info : UTF-8 Plain Text
Title : Полные - iTunes
Language : Russian
Default : No
Forced : No
Text #3
ID : 6
Format : UTF-8
Codec ID : S_TEXT/UTF8
Codec ID/Info : UTF-8 Plain Text
Title : Full
Language : English
Default : No
Forced : No
Text #4
ID : 7
Format : UTF-8
Codec ID : S_TEXT/UTF8
Codec ID/Info : UTF-8 Plain Text
Title : SDH
Language : English
Default : No
Forced : No
Menu
00:00:00.000 : :1
00:07:24.736 : :2
00:11:54.505 : :3
00:18:54.884 : :4
00:23:15.311 : :5
00:25:03.293 : :6
00:28:11.690 : :7
00:36:47.163 : :8
00:41:24.148 : :9
00:45:48.829 : :10
00:52:01.744 : :11
00:57:45.879 : :12
01:03:01.569 : :13
01:11:32.705 : :14
01:15:52.131 : :15
01:25:57.194 : :16
01:36:18.648 : :17
01:41:29.417 : :18
01:46:05.192 : :19
01:48:57.239 : :20
7.12.2016 Релиз обновлен...iTunes
Благодарности релизеру (23)

Торрент:

Статус:

Размер:

Зарегистрирован   [ 2016-12-07 11:02 ]

* не проверено

8.04 GB

 
 Мнение о фильме (8)





Круто!
 

Amstaff,
Спасибо!!! и спасибо Ash61 за проделанную работу
 

Спасибо супер.
 

Спасибо, как всегда отлично!
И отдельное спасибо за озвучку))))
 

Спасибо, а без полос будет?
 

Ждем без полос ))
 

СПС за работу!
 

Нудный, детский, скучный фильм, ожидал от Спилберга, как минимум уровня Парка Юрского Периода. 3D объёмно и всё. Не понимаю, что всем так понравилось. За релиз спасибо.