Торренты   
 
 


Американские горки 3D [Anaglyph, red'cyan]

Рейтинг 3D:
Пока никто не голосовал
Рейтинг фильма:
Пока никто не голосовал
 
Вы должны быть авторизированы,
чтобы ставить оценки


Американские горки 3D
Жанр: Американские горки
Продолжительность: 2 минуты
Описание: Американские горки в 3D
Формат 3d: Anaglyph
Цвета очков:

Скриншоты


Mi

mi:General
Complete name : C:\Documents and Settings\Владелец\Рабочий стол\3D Стерео видео ролик . Американские Горки (смотреть в 3D очках).mp4
Format : MPEG-4
Codec ID : M4V
File size : 13.3 MiB
Duration : 1mn 59s
Overall bit rate : 933 Kbps
Writing application : Lavf52.73.0
Video
ID : 1
Format : AVC
Format/Info : Advanced Video Codec
Format profile : Main@L3.0
Format settings, CABAC : Yes
Format settings, ReFrames : 3 frames
Codec ID : avc1
Codec ID/Info : Advanced Video Coding
Duration : 1mn 58s
Bit rate mode : Variable
Bit rate : 801 Kbps
Width : 540 pixels
Height : 360 pixels
Display aspect ratio : 3:2
Frame rate : 29.970 fps
Color space : YUV
Chroma subsampling : 4:2:0
Bit depth : 8 bits
Scan type : Progressive
Bits/(Pixel*Frame) : 0.138
Stream size : 11.3 MiB (86%)
Audio
ID : 2
Format : AAC
Format/Info : Advanced Audio Codec
Format version : Version 4
Format profile : LC
Format settings, SBR : No
Codec ID : 40
Duration : 1mn 59s
Bit rate mode : Variable
Bit rate : 127 Kbps
Channel(s) : 2 channels
Channel positions : Front: L R
Sampling rate : 44.1 KHz
Stream size : 1.80 MiB (14%)
Благодарности релизеру (0)

Торрент:

Статус:

Размер:

Зарегистрирован   [ 2011-02-20 10:27 ]

проверено

13 MB