Торренты   
 
 

 

Zagruzin "Пылесос - кровосос в 3D" (музыкальный клип, стеб-ужастик) [2011 г., 720р, OverUnder]

Рейтинг 3D:
12 голосов
7.8
Рейтинг фильма:
12 голосов
5.8
 
Вы должны быть авторизированы,
чтобы ставить оценки


Zagruzin "Пылесос - кровосос в 3D" (музыкальный клип)
Год выпуска: 2011
Страна: Россия
Жанр: стеб фарс ужастик музыка
Продолжительность: 00:07:21
Оф сайт: http://glinka3d.ucoz.ru
Муз страничка МП3: http://www.realmusic.ru/zagruzin/
На ютубе: http://www.youtube.com/user/mrZagruzin
Описание:
Музыкальный стеб-клип ужастик от ВИА-ансамбля воплей и тряски им. Карабаса Б. группы Zagruzin "Пылесос - кровосос в 3D"
Теперь в новом модном стереоскопическом формате. Снят полностью дома на цифромыльницы с минимальной стереобазой 10см.
Стереобаза: 10 см (меньше корпус не позволяет), минимальная дистанция до объектов 2м по формуле стереобаза = 1/20-30 расстояния до ближайшего объекта. Уменьшение виртуальной стереобазы, с помощью увеличения расстояния до объекта, с помощью увеличения зума (фокусного).
Видеокамеры: Два Samsung NV24HD на фанерке.
Синхронизация: ИК пульт д/у из комплекта камеры.
Дополнительно: Содержит бонус 3D фото 10шт фулл HD, перекрестная стереопара.
Полное разрешение 720р, анаморфная версия под встроенные плееры 3Д ТВ здесь: http://torrents3d.ru/viewtopic.php?t=1175
Формат 3d: OverUnder
Расположение: Левый ракурс сверху.
Видео: 1280х1440 (720р), 16:9, 29,97 к/с. MP4, AVC, Н264, 10 Mbps
Аудио: АAС, 44кГц, 512kbps

MI

General
Complete name : Zagruzin_Pilisos_krovosos_3D.mp4
Format : MPEG-4
Format profile : Base Media / Version 2
Codec ID : mp42
File size : 520 MiB
Duration : 7mn 21s
Overall bit rate : 9 874 Kbps
Encoded date : UTC 2011-02-20 17:41:43
Tagged date : UTC 2011-02-20 17:41:43
Video
ID : 2
Format : AVC
Format/Info : Advanced Video Codec
Format profile : Main@L4.0
Format settings, CABAC : Yes
Format settings, ReFrames : 2 frames
Codec ID : avc1
Codec ID/Info : Advanced Video Coding
Duration : 7mn 21s
Bit rate mode : Variable
Bit rate : 9 413 Kbps
Maximum bit rate : 10 000 Kbps
Width : 1 280 pixels
Height : 1 440 pixels
Display aspect ratio : 0.889
Frame rate mode : Constant
Frame rate : 29.970 fps
Standard : NTSC
Color space : YUV
Chroma subsampling : 4:2:0
Bit depth : 8 bits
Scan type : Progressive
Bits/(Pixel*Frame) : 0.170
Stream size : 495 MiB (95%)
Language : English
Encoded date : UTC 2011-02-20 17:41:43
Tagged date : UTC 2011-02-20 17:41:43
Audio
ID : 1
Format : AAC
Format/Info : Advanced Audio Codec
Format version : Version 4
Format profile : LC
Codec ID : 40
Duration : 7mn 21s
Bit rate mode : Constant
Bit rate : 456 Kbps
Nominal bit rate : 1 013 bps
Channel(s) : 2 channels
Channel positions : Front: L R
Sampling rate : 44.1 KHz
Stream size : 24.0 MiB (5%)
Language : English
Encoded date : UTC 2011-02-20 17:41:43
Tagged date : UTC 2011-02-20 17:41:43

Скриншоты

Скриншоты в уменьшенном виде в перекрестной паре для удобства предпросмотра методом косоглазия.












Полноразмерный пример:

Пример бонус фото:

Ну и конечно спасибо от героя ролика форумчанину;)
Остальные раздачи этого фильма (2)
Благодарности релизеру (1)

Торрент:

Статус:

Размер:

Зарегистрирован   [ 2011-02-20 22:15 ]

проверено

526 MB

 
 Мнение о фильме (9)





Хороший клип! Можно было-бы взять гонорар за рекламу пылесоса - Самсунг... если-бы, конечно, там не снялся пылесос - ЭлДжи... Звук идёт как надо, картинка тоже хороша!
 

Спасибо!
Можно было-бы взять гонорар за рекламу пылесоса - Самсунг... если-бы, конечно, там не снялся пылесос - ЭлДжи...
В том то и дело, теперь не только ни кто не заплатит а наоборот выставит иск, Самсунг за демонизацию их продукции, а ЛыЖи за подмену бренда конкурентов:)))
 

Привет из азахстана, скачал посмотрел, и если это сделано 2 фотикам, то в скором времени мы все сможим снимать достойное видео, чесно говоря очень давно хочу перейти на этот уровень, из 2d в 3D, фиансовая планка не позволяе, а так хочиться снять свадьбу в объеме, порабоать с глубинй, с вылетом из экрана, еоретически вроде бы понимаю а до практии все ни как не доходит, то ремон то дети подрастающие, а время идет и окружающие занимат эту пка ещё свободную нишу.
 

3Д ЭФФЕКТОВ ОСОБЕННО НЕБЫЛО ЗАТО СМЕШНОЙ КЛИПАК
 
Венягладких Профиль 17-Сен-2012 17:05

Zagruzin Благодарю!!! Довольно не плохо.
 

3д на уровне, а музыка - дело по вкусу
 
Олег Подворный Профиль 14-Янв-2014 18:39

Олег Подворный, Спасибо за мнение. А музыка была записана ещё в 2001г.
 

Кто нибудь встаньте на раздачу!!!Спасибо)))
 

Круто для мыльниц!Спасибо)))