Торренты   
 
 


IMAX. Серфинг на Таити / The Ultimate Wave: Tahiti (Steven Lowe) [2010 г., 1080p, Anamorph SideBySide]

Рейтинг 3D:
Пока никто не голосовал
Рейтинг фильма:
Пока никто не голосовал
 
Вы должны быть авторизированы,
чтобы ставить оценки


IMAX. Серфинг на Таити / The Ultimate Wave: Tahiti 3D
Год выпуска: 2010
Страна: США
Жанр: Документальный
Продолжительность: 00:45:53
Перевод: Отсутствует
Режиссер: Steven Lowe
В ролях: Майкл Ханрахан, Келли Слэйтер, Raimana Van Bastolear
Описание: Действие разворачивается на острове Таити, в местечке Teahupoo,знаменитом своими убийственно быстрыми и тяжелыми волнами. Туда приезжает 9-кратный Чемпион Мира и лучший серфер всех времен - Келли Слейтер. В ожидании идеальных погодных условий, Келли не теряет время и под руководством таитского серф-гуру Раймана Ван Басталейра исследует остров во всех его проявлениях. Общение Келли и Райманы показывает, как страсть к океану объединяет людей из разных миров , что увлекает их в серфинге и заставляет идти на риск ради самых лучших волн. Создатели фильма не только раскрывают секреты философии серфинга, но и рассказывают о его природе: например, как образуются волны и формируются острова. Благодаря уникальным съемкам и полусферическому экрану IMAX, зрители погружаются в атмосферу потрясающей природы вулканических островов Французской Полинезии, красоты местных коралловых рифов и древней культуры Таити.
Формат 3d: Anamorph SideBySide
Порядок ракурсов: Параллельная пара

Скриншоты




МедиаИнфо

Полное имя : D:\The Ultimate Wave Tahiti 3D Half-SBS.mkv
Формат : Matroska
Размер файла : 4,42 Гбайт
Продолжительность : 45 м.
Общий поток : 13,8 Мбит/сек
Название фильма : ULTIMATE_WAVE_3D.Title5.Bluray3DRip
Дата кодирования : UTC 2011-02-17 20:36:40
Программа кодирования : mkvmerge v4.4.0 ('Die Wiederkehr') gemaakt op Oct 31 2010 21:52:48
Библиотека кодирования : libebml v1.0.0 + libmatroska v1.0.0
Видео
Идентификатор : 1
Формат : AVC
Формат/Информация : Advanced Video Codec
Профиль формата : High@L4.1
Параметр CABAC формата : Да
Параметр ReFrames формата : 2 кадры
Идентификатор кодека : V_MPEG4/ISO/AVC
Продолжительность : 45 м.
Битрейт : 10,4 Мбит/сек
Ширина : 1920 пикс.
Высота : 1080 пикс.
Соотношение сторон : 16:9
Частота кадров : 23,976 кадр/сек
Цветовое пространство : YUV
Подвыборка цветности : 4:2:0
Битовая глубина : 8 бит
Тип развёртки : Прогрессивная
Бит/(Пиксели*Кадры) : 0.210
Размер потока : 3,35 Гбайт (76%)
Библиотека кодирования : x264 core
Язык : English
Основные цвета : BT.709-5, BT.1361, IEC 61966-2-4, SMPTE RP177
Характеристики трансфера : BT.709-5, BT.1361
Коэффициенты матрицы : BT.709-5, BT.1361, IEC 61966-2-4 709, SMPTE RP177
Аудио #1
Идентификатор : 2
Формат : DTS
Формат/Информация : Digital Theater Systems
Идентификатор кодека : A_DTS
Продолжительность : 45 м.
Вид битрейта : Постоянный
Битрейт : 1510 Кбит/сек
Канал(ы) : 6 канала(ов)
Расположение каналов : Front: L C R, Side: L R, LFE
Частота : 48,0 КГц
Битовая глубина : 16 бит
Метод сжатия : С потерями
Размер потока : 495 Мбайт (11%)
Язык : English
Аудио #2
Идентификатор : 3
Формат : DTS
Формат/Информация : Digital Theater Systems
Профиль формата : MA / Core
Идентификатор кодека : A_DTS
Продолжительность : 45 м.
Вид битрейта : Переменный
Битрейт : 1561 Кбит/сек / 1510 Кбит/сек
Канал(ы) : 6 канала(ов)
Расположение каналов : Front: L C R, Side: L R, LFE
Частота : 48,0 КГц
Битовая глубина : 16 бит
Метод сжатия : Без потерь / Lossy
Язык : German
Меню
00:00:00.000 : en:(01)00:00:00:000
00:02:18.221 : en:(02)00:02:18:221
00:03:54.859 : en:(03)00:03:54:859
00:06:49.617 : en:(04)00:06:49:617
00:07:57.768 : en:(05)00:07:57:768
00:10:17.116 : en:(06)00:10:17:116
00:11:41.659 : en:(07)00:11:41:659
00:13:35.940 : en:(08)00:13:35:940
00:14:45.843 : en:(09)00:14:45:843
00:20:36.360 : en:(10)00:20:36:360
00:24:33.805 : en:(11)00:24:33:805
00:27:21.556 : en:(12)00:27:21:556
00:28:41.970 : en:(13)00:28:41:970
00:32:29.697 : en:(14)00:32:29:697
00:34:37.909 : en:(15)00:34:37:909
00:35:41.264 : en:(16)00:35:41:264
00:39:51.764 : en:(17)00:39:51:764
00:41:40.956 : en:(18)00:41:40:956
00:45:52.791 : en:(19)00:45:52:791
Благодарности релизеру (3)

Торрент:

Статус:

Размер:

Зарегистрирован   [ 2011-02-21 22:10 ]

проверено

4.42 GB