Торренты   
 
 

 

Пираньи 3D / Piranha 3D (Александр Ажа / Alexandre Aja) [2010 г., ужасы, боевик, триллер, 1080p, BDRip, OverUnder ]

Рейтинг 3D:
4 голосов
7.0
Рейтинг фильма:
4 голосов
6.0
 
Вы должны быть авторизированы,
чтобы ставить оценки


© Закрыто правообладателем
Год выпуска: 2010
Страна: США
Жанр: ужасы, боевик, триллер
Продолжительность: 01:28:21
Перевод: Профессиональный (дублированный)
Субтитры: Нет-Режиссер: Александр Ажа
В ролях: Ричард Дрейфусс, Винг Рэймс, Элизабет Шу, Кристофер Ллойд, Элай Рот, Джерри О`Коннелл, Стивен Р. МакКуин, Джессика Зор, Келли Брук, Райли Стил
Описание фильма: 20 тысяч подростков курортного городка у озера Виктория готовятся к празднованию ежегодного праздника начала лета. Но ночное землетрясение высвобождает сотни тысяч доисторических пираний прямо накануне торжества. Очаровательная шериф, ее подчиненные-полицейские и доктор Горден Рэйбэнкс решают сделать все, чтобы веселый праздник молодежи в озере не превратился в кровавое пиршество. Но пираньи уже знают ответ, кто победит: молодость или многовековая жажда крови…-Релиз группы:
Качество: BDRip
Формат: MKV
Формат 3d: OverUnder / Вертикальная стереопара
Видео кодек: H264
Аудио кодек: AC-3, DTS
Видео: MPEG4 Video (H264) / 1920х1600 / 23.98fps / 14,0 Мбит/сек
Аудио 1: Rus AC-3 / 5.1 / 48 kHz / 448 kbps / 16-bit
Аудио 2: Eng DTS / 5.1 / 48 kHz / 1510 kbps / 16-bit
Субтитры: Нет-______BD3D______vs______Rip________-

Скриншоты



Медиа инфо

Общее
Уникальный идентификатор : 205090191227722685379676734377794771497 (0x9A4AEF1E762D3BDDBD9E440DD0EC9A29)
Полное имя : Пираньи_OU_1080p.mkv
Формат : Matroska
Размер файла : 10,1 Гбайт
Продолжительность : 1 ч. 28 м.
Общий поток : 16,3 Мбит/сек
Дата кодирования : UTC 2011-02-23 04:09:08
Программа кодирования : mkvmerge v3.4.0 ('Rapunzel') сборка от May 15 2010 09:38:20
Библиотека кодирования : libebml v0.8.0 + libmatroska v0.9.0
Видео
Идентификатор : 1
Формат : AVC
Формат/Информация : Advanced Video Codec
Профиль формата : High@L5.0
Параметр CABAC формата : Да
Параметр ReFrames формата : 4 кадры
Идентификатор кодека : V_MPEG4/ISO/AVC
Продолжительность : 1 ч. 28 м.
Битрейт : 14,0 Мбит/сек
Ширина : 1920 пикс.
Высота : 1600 пикс.
Соотношение сторон : 1,200
Частота кадров : 23,976 кадр/сек
Цветовое пространство : YUV
Подвыборка цветности : 4:2:0
Битовая глубина : 8 бит
Тип развёртки : Прогрессивная
Бит/(Пиксели*Кадры) : 0.190
Размер потока : 8,62 Гбайт (86%)
Библиотека кодирования : x264 core 112 r1834 a51816a
Настройки программы : cabac=1 / ref=4 / deblock=1:-3:-3 / analyse=0x3:0x133 / me=tesa / subme=10 / psy=1 / psy_rd=1.00:0.00 / mixed_ref=1 / me_range=16 / chroma_me=1 / trellis=2 / 8x8dct=1 / cqm=0 / deadzone=21,11 / fast_pskip=0 / chroma_qp_offset=-2 / threads=12 / sliced_threads=0 / nr=0 / decimate=0 / interlaced=0 / constrained_intra=0 / bframes=8 / b_pyramid=2 / b_adapt=2 / b_bias=0 / direct=3 / weightb=1 / open_gop=0 / weightp=2 / keyint=250 / keyint_min=23 / scenecut=40 / intra_refresh=0 / rc=crf / mbtree=0 / crf=22.0 / qcomp=0.75 / qpmin=0 / qpmax=51 / qpstep=4 / ip_ratio=1.40 / pb_ratio=1.30 / aq=1:0.90
Язык : English
Аудио #1
Идентификатор : 2
Формат : AC-3
Формат/Информация : Audio Coding 3
Расширение режима : CM (complete main)
Идентификатор кодека : A_AC3
Продолжительность : 1 ч. 28 м.
Вид битрейта : Постоянный
Битрейт : 448 Кбит/сек
Канал(ы) : 6 канала(ов)
Расположение каналов : Front: L C R, Side: L R, LFE
Частота : 48,0 КГц
Битовая глубина : 16 бит
Метод сжатия : С потерями
Размер потока : 283 Мбайт (3%)
Язык : Russian
Аудио #2
Идентификатор : 3
Формат : DTS
Формат/Информация : Digital Theater Systems
Профиль формата : MA / Core
Идентификатор кодека : A_DTS
Продолжительность : 1 ч. 28 м.
Вид битрейта : Переменный
Битрейт : 1561 Кбит/сек / 1510 Кбит/сек
Канал(ы) : 6 канала(ов)
Расположение каналов : Front: L C R, Side: L R, LFE
Частота : 48,0 КГц
Битовая глубина : 16 бит
Метод сжатия : Без потерь / Lossy
Язык : English
Меню
00:00:00.000 : :1. Hungry WHirlpool
00:07:22.817 : :2. Spring Break
00:13:04.659 : :3. Dead Discovery
00:20:40.865 : :4. Going Wild
00:30:20.068 : :5. Get Up Of The Water
00:38:55.792 : :6. Original Piranha
00:45:19.342 : :7. Jump In
00:51:20.786 : :8. Dinner Time
01:01:22.095 : :9. Chew On This
01:08:05.873 : :10. Kelly's Stuck
01:16:33.464 : :11. Babies
01:22:11.718 : :12. End Credits
Благодарности релизеру (0)

Торрент:

Статус:

Размер:

Зарегистрирован   [ 2012-05-06 21:15 ]

© закрыто правообладателем

10.06 GB