Торренты   
 
 

 

Космический охотник: Приключения в Запретной зоне / Spacehunter: Adventures in the Forbidden 3D (Ламонт Джонсон / Lamont Johnson) [1983 г., SideBySide]

Рейтинг 3D:
1 голосов
8.0
Рейтинг фильма:
1 голосов
8.0
 
Вы должны быть авторизированы,
чтобы ставить оценки


Космический охотник: Приключения в Запретной зоне / Spacehunter: Adventures in the Forbidden 3D
Год выпуска: 1983
Страна: США
Жанр: фантастика, приключения
Продолжительность: 01:29:34
Перевод: Профессиональный (многоголосый, закадровый)
Режиссер: Ламонт Джонсон / Lamont Johnson
В ролях: Питер Страусс, Майкл Айронсайд, Молли Рингволд, Эрни Хадсон, Андреа Марковичи, Бисон Кэрролл, Харант Алянак, Дебора Прэтт
Описание: Время действия - отдаленное будущее. Пассажирский космолайнер терпит крушение. Погибают все, кроме трех девушек, которые за минуту до взрыва успевают покинуть обреченный корабль на спасательном челноке. Следуя заложенной в него программе, челнок самостоятельно подыскивает планету для высадки. Этой планетой становится Терра-11, атмосфера которой схожа с земной. Из сводки новостей космический охотник Вулф узнает о крушении корабля и о высадке выживших пассажирок. В результате анализа запрошенной информации оказывается, что в течение долгих лет её население было охвачено чумой. Медицинская экспедиция, отправленная на планету, не смогла справиться с разбушевавшейся болезнью и Терре-11 был присвоен статус запретной зоны. Вулф сомневается, стоит ли рисковать головой и лететь на зачумленную планету, но за спасение девушек назначено огромное вознаграждение...
Формат 3d: SideBySide
Порядок ракурсов: Параллельная пара

Скриншоты



me

General
Complete name : E:\STEREO\DONE\Космический охотник. Приключения в запретной зоне.mkv
Format : Matroska
File size : 2.19 GiB
Duration : 1h 29mn
Overall bit rate : 3 501 Kbps
Movie name : full
Encoded date : UTC 2011-01-28 06:35:49
Writing application : mkvmerge v4.4.0 ('Die Wiederkehr') сборка от Oct 31 2010 21:52:48
Writing library : libebml v1.0.0 + libmatroska v1.0.0
Video
ID : 1
Format : AVC
Format/Info : Advanced Video Codec
Format profile : High@L4.0
Format settings, CABAC : Yes
Format settings, ReFrames : 3 frames
Format settings, GOP : M=3, N=46
Muxing mode : Header stripping
Codec ID : V_MPEG4/ISO/AVC
Duration : 1h 29mn
Bit rate mode : Variable
Bit rate : 3 303 Kbps
Nominal bit rate : 3 526 Kbps
Maximum bit rate : 25.0 Mbps
Width : 1 408 pixels
Height : 384 pixels
Display aspect ratio : 3.667
Frame rate : 23.976 fps
Color space : YUV
Chroma subsampling : 4:2:0
Bit depth : 8 bits
Scan type : Progressive
Bits/(Pixel*Frame) : 0.255
Stream size : 2.07 GiB (94%)
Writing library : x264 core 105 r1732 2b04482
Encoding settings : cabac=1 / ref=3 / deblock=1:0:0 / analyse=0x3:0x133 / me=umh / subme=7 / psy=1 / psy_rd=1.00:0.00 / mixed_ref=1 / me_range=16 / chroma_me=1 / trellis=1 / 8x8dct=1 / cqm=0 / deadzone=21,11 / fast_pskip=1 / chroma_qp_offset=-2 / threads=3 / sliced_threads=0 / nr=0 / decimate=1 / interlaced=0 / constrained_intra=0 / bframes=3 / b_pyramid=0 / b_adapt=1 / b_bias=0 / direct=1 / weightb=1 / open_gop=0 / weightp=2 / keyint=240 / keyint_min=24 / scenecut=40 / intra_refresh=0 / rc_lookahead=40 / rc=2pass / mbtree=1 / bitrate=3526 / ratetol=1.0 / qcomp=0.60 / qpmin=10 / qpmax=51 / qpstep=4 / cplxblur=20.0 / qblur=0.5 / vbv_maxrate=25000 / vbv_bufsize=25000 / ip_ratio=1.40 / aq=1:1.00 / nal_hrd=vbr
Audio
ID : 2
Format : MPEG Audio
Format version : Version 1
Format profile : Layer 3
Mode : Joint stereo
Mode extension : MS Stereo
Muxing mode : Header stripping
Codec ID : A_MPEG/L3
Codec ID/Hint : MP3
Duration : 1h 29mn
Bit rate mode : Constant
Bit rate : 128 Kbps
Channel(s) : 2 channels
Sampling rate : 48.0 KHz
Video delay : 9ms
Stream size : 82.0 MiB (4%)
Благодарности релизеру (5)

Торрент:

Статус:

Размер:

Зарегистрирован   [ 2011-03-02 10:48 ]

проверено

2.19 GB