Торренты   
 
 

 

Большое путешествие вглубь океанов 3D / OceanWorld 3D [2010 г, 1080p, Anamorph SideBySide]

Рейтинг 3D:
2 голосов
9.5
Рейтинг фильма:
1 голосов
7.0
 
Вы должны быть авторизированы,
чтобы ставить оценки


Большое путешествие вглубь океанов 3D / OceanWorld 3D
Год выпуска: 2009
Страна: Великобритания
Жанр: Документальный
Продолжительность: 01:22:07
Перевод: Профессиональный (двухголосый)
Режиссёр: Жан-Жак Мантелло / Jean-Jacques Mantello
Озвучка [eng]: Марион Котийяр / Marion Cotillard
Озвучка [рус]: Юлия Рутберг
Описание: Океан — колыбель жизни и громадная часть планеты Земля. Богатый подводный мир, его законы, сокровища и жизнь обитателей до сих пор остаются загадкой для человечества. Фильм погружает зрителей в морские глубины и открывает тайны и невероятную красоту океана. И под толщей воды, куда не проникают лучи света, и на солнечных коралловых рифах у самого берега — везде бурлит удивительная жизнь, скрытая от глаз человека. Живописные подводные ландшафты превосходят самые смелые фантазии человека.
А жизнь обитателей моря — насыщенная, опасная, и такая многообразная, — раскрывается во всем своем великолепии и красочных деталях. «Большое путешествие вглубь океанов 3D» — первый документальный фильм, полностью снятый в формате Digital 3D. Новейшая технология съемок полностью стирает границу между экраном и зрителем, делает изображение объемным и реалистичным на сто процентов.
Уникальные подводные съемки велись на расстоянии «вытянутой руки» и проходили в 15 морях и 3 океанах знаменитой командой (Жан-Мишеля Кусто).
Формат 3d: Anamorph SideBySide
Порядок ракурсов: Параллельная пара
Качество: BDRip
Контейнер: MKV
Видео: AVC / 1920х1080p / 23,976 fps / 10 000 kbps
Аудио [rus]: AC3 / 6ch / 448 Kbps / 48 KHz
Аудио [eng]: DTS / 6 ch / 1510 kbps / 48 KHz

MediaInfo

General
Unique ID : 223213988177988036276038618979993842974 (0xA7ED734C5A706BF1AB78AECC826EF51E)
Complete name : F:\Downloads\OceanWorld.am.mkv
Format : Matroska
File size : 6.86 GiB
Duration : 1h 22mn
Overall bit rate : 12.0 Mbps
Encoded date : UTC 2011-03-03 00:42:48
Writing application : mkvmerge v4.4.0 ('Die Wiederkehr') сборка от Oct 31 2010 21:52:48
Writing library : libebml v1.0.0 + libmatroska v1.0.0
Video
ID : 1
Format : AVC
Format/Info : Advanced Video Codec
Format profile : High@L4.1
Format settings, CABAC : Yes
Format settings, ReFrames : 4 frames
Codec ID : V_MPEG4/ISO/AVC
Duration : 1h 22mn
Bit rate : 10 000 Kbps
Width : 1 920 pixels
Height : 1 080 pixels
Display aspect ratio : 3.556
Original display aspect ratio : 16:9
Frame rate : 23.976 fps
Color space : YUV
Chroma subsampling : 4:2:0
Bit depth : 8 bits
Scan type : Progressive
Bits/(Pixel*Frame) : 0.201
Stream size : 5.60 GiB (82%)
Title : made by z-man
Writing library : x264 core 112 r1834 a51816a
Encoding settings : cabac=1 / ref=4 / deblock=1:-1:-1 / analyse=0x3:0x113 / me=umh / subme=9 / psy=1 / psy_rd=1.00:0.15 / mixed_ref=1 / me_range=16 / chroma_me=1 / trellis=1 / 8x8dct=1 / cqm=0 / deadzone=21,11 / fast_pskip=1 / chroma_qp_offset=-3 / threads=18 / sliced_threads=0 / nr=0 / decimate=1 / interlaced=0 / constrained_intra=0 / bframes=3 / b_pyramid=2 / b_adapt=1 / b_bias=0 / direct=1 / weightb=1 / open_gop=0 / weightp=2 / keyint=250 / keyint_min=23 / scenecut=40 / intra_refresh=0 / rc_lookahead=40 / rc=2pass / mbtree=1 / bitrate=10000 / ratetol=1.0 / qcomp=0.60 / qpmin=0 / qpmax=51 / qpstep=4 / cplxblur=20.0 / qblur=0.5 / ip_ratio=1.40 / aq=1:1.00
Audio #1
ID : 2
Format : AC-3
Format/Info : Audio Coding 3
Mode extension : CM (complete main)
Codec ID : A_AC3
Duration : 1h 22mn
Bit rate mode : Constant
Bit rate : 448 Kbps
Channel(s) : 6 channels
Channel positions : Front: L C R, Side: L R, LFE
Sampling rate : 48.0 KHz
Bit depth : 16 bits
Compression mode : Lossy
Stream size : 263 MiB (4%)
Language : Russian
Audio #2
ID : 3
Format : DTS
Format/Info : Digital Theater Systems
Codec ID : A_DTS
Duration : 1h 22mn
Bit rate mode : Constant
Bit rate : 1 510 Kbps
Channel(s) : 6 channels
Channel positions : Front: L C R, Side: L R, LFE
Sampling rate : 48.0 KHz
Bit depth : 24 bits
Compression mode : Lossy
Stream size : 887 MiB (13%)
Language : English

Скриншоты

Благодарности релизеру (8)

Торрент:

Статус:

Размер:

Зарегистрирован   [ 2011-03-03 18:26 ]

проверено

6.86 GB