Торренты   
 
 


IMAX. Мумии: Секреты фараонов 3Д / Mummies: Secrets of the Pharaohs 3D (Кейт Мелтон) [2007 г., 1080p, Anamorph SideBySide]

Рейтинг 3D:
Пока никто не голосовал
Рейтинг фильма:
Пока никто не голосовал
 
Вы должны быть авторизированы,
чтобы ставить оценки


IMAX. Мумии: Секреты фараонов 3Д / Mummies: Secrets of the Pharaohs 3D
Год выпуска: 2007
Страна: США, Image Entertainment
Жанр: Документальный
Продолжительность: 00:38:41
Перевод: Отсутствует
Режиссер: Кейт Мелтон / Keith Melton
В ролях: Элана Драго, Уильям Хоуп, Нассер Мемарзиа, Криспин Редмен, Дауд Шах, Борис Терраль, Bob Brier, Brahim Choukri, Angelique Corthals, Zahi Hawass
Описание: Вы переноситесь в увлекательный и красивый мир древнего Египта. Это археологическое и научное приключение по следам исследователей и первооткрывателей, из рассказа которых складывается представление о культуре древнего Египта, о секретах мумий, о генетических находках.
Фильм «МУМИИ: СЕКРЕТЫ ФАРАОНОВ» изучает загадочный мир Древнего Египта на основе материалов о древних мумиях. Египетская культура мумифицирования не была первой, последней или самой продолжительной. Но для многих она остается самой великой. Древние египтяне верили, что их судьбы подчиняются воле богов, на чье решение могли повлиять усопшие предки. Проявляя уважение к умершим путем их мумифицирования, они надеялись добиться контроля над волей богов и над своими судьбами.
В прошлые века мумии растирали в порошок в качестве лекарства для богатых европейцев, а также разрушали их несоблюдением техники извлечения из бинтов в XIX и XX веках.
В наши дни ученые пользуются компьютерной томографией, позволяющей просветить объект рентгеновскими лучами, не нарушая его целостности. Помимо попыток глубже заглянуть в наше далекое прошлое, ученые реконструируют ДНК мумий и расшифровывают древние письмена для получения новых знаний из области генетики и медицины.
Сюжетная линия фильма «МУМИИ: СЕКРЕТЫ ФАРАОНОВ» неразрывно связана с работой двух выдающихся ученых: египтолога и специалиста по мумиям доктора Боба Брайара, который мумифицировал тело современного человека по древнеегипетской технологии; и доктора Анжелики Кортальс, ученого-генетика, работающей над извлечением генетической информации из тел древних мумий для продвижения современной медицины.
Отчасти историческое путешествие, отчасти научное приключение, «МУМИИ: СЕКРЕТЫ ФАРАОНОВ» покажут нам, как фрагмент за фрагментом складываются воедино археологические и генетические находки. С помощью потрясающей компьютерной графики и комплексной реконструкции событий мы становимся свидетелями значимого исторического события – находки гробницы с сорока мумиями, включая двенадцать Царей Египта.
Формат 3d: Anamorph SideBySide
Порядок ракурсов: Параллельная пара
Качество: BDRip (не мой)
Контейнер: MKV
Видео: AVC / 1920х1080p / 23,976 fps / 10 000 kbps
Аудио [eng]: AC3 / 6ch / 640 Kbps / 48 KHz

MediaInfo

General
Unique ID : 189286441919630179178851474879359718245 (0x8E673E1EB356C98B98C33E1C92CF9365)
Complete name : F:\Downloads\Mummies.am.mkv
Format : Matroska
File size : 2.93 GiB
Duration : 38mn 41s
Overall bit rate : 10.8 Mbps
Encoded date : UTC 2010-10-05 14:14:48
Writing application : mkvmerge v4.3.0 ('Escape from the Island') gemaakt op Sep 5 2010 10:30:51
Writing library : libebml v1.0.0 + libmatroska v1.0.0
Video
ID : 1
Format : AVC
Format/Info : Advanced Video Codec
Format profile : Baseline@L4.0
Format settings, CABAC : No
Format settings, ReFrames : 1 frame
Codec ID : V_MPEG4/ISO/AVC
Duration : 38mn 41s
Bit rate : 10 000 Kbps
Width : 1 920 pixels
Height : 1 080 pixels
Display aspect ratio : 16:9
Frame rate : 23.976 fps
Color space : YUV
Chroma subsampling : 4:2:0
Bit depth : 8 bits
Scan type : Progressive
Bits/(Pixel*Frame) : 0.201
Stream size : 2.70 GiB (92%)
Writing library : x264 core 67 r1127 8d82fec
Encoding settings : cabac=0 / ref=1 / deblock=0:0:0 / analyse=0x1:0 / me=dia / subme=8 / psy_rd=1.0:0.0 / mixed_ref=0 / me_range=4 / chroma_me=0 / trellis=0 / 8x8dct=0 / cqm=0 / deadzone=21,11 / chroma_qp_offset=-2 / threads=1 / nr=0 / decimate=1 / mbaff=0 / bframes=0 / keyint=12 / keyint_min=7 / scenecut=0 / rc=abr / bitrate=10000 / ratetol=1.0 / qcomp=0.50 / qpmin=2 / qpmax=31 / qpstep=3 / ip_ratio=1.25 / aq=1:1.00
Language : English
Audio
ID : 2
Format : AC-3
Format/Info : Audio Coding 3
Mode extension : CM (complete main)
Codec ID : A_AC3
Duration : 38mn 41s
Bit rate mode : Constant
Bit rate : 640 Kbps
Channel(s) : 6 channels
Channel positions : Front: L C R, Side: L R, LFE
Sampling rate : 48.0 KHz
Bit depth : 16 bits
Compression mode : Lossy
Stream size : 177 MiB (6%)
Language : English

Скриншоты

Благодарности релизеру (1)

Торрент:

Статус:

Размер:

Зарегистрирован   [ 2011-03-04 18:45 ]

проверено

2.93 GB