Торренты   
 
 


История Игрушек-2 3D / Toy Story-2 3D (Джон Лассетер) [1999 г.,1080p, Anamorph SideBySide]

Рейтинг 3D:
Пока никто не голосовал
Рейтинг фильма:
Пока никто не голосовал
 
Вы должны быть авторизированы,
чтобы ставить оценки


История Игрушек-2 3D / Toy Story-2 3D
Год выпуска: 1999
Страна: США
Жанр: Мультфильм, Комедия, Семейный
Продолжительность: 01:28:22
Перевод: Дублированный (Невафильм - Базз Лайтер)
Режиссер: Джон Лассетер
Роли озвучивали: Том Хэнкс — Вуди
Тим Аллен — Базз Лайтер
Дон Риклз — Мистер Картофельная голова
Джим Верни — Слинки
Уоллес Шоун — Рекс
Джон Ратцнбергер — Хэм
Описание: Ковбой Вуди и другие игрушки продолжают свою жизнь в семье мальчика Энди, радуясь каждому дню. Но однажды Вуди похищает коварный коллекционер — ковбой оказывается редкой игрушкой из комплекта, за который японский музей игрушек готов заплатить крупную сумму. В доме коварного коллекционера он находит своих родственников. Остальные игрушки во главе с Баззом Лайтером решают выручить Вуди и отправляются за ним.
Вуди узнает многое из своего прошлого, находит новых друзей и, возможно, впервые задается вопросом — каков смысл его существования?
TVRip
Формат 3d: Anamorph SideBySide
Порядок ракурсов: Параллельная пара

Скриншоты




MediaInfo

General
Format : Matroska
File size : 5.21 GiB
Duration : 1h 28mn
Overall bit rate : 8 420 Kbps
Encoded date : UTC 2011-03-04 17:41:15
Writing application : mkvmerge v4.4.0 ('Die Wiederkehr') сборка от Oct 31 2010 21:52:48
Writing library : libebml v1.0.0 + libmatroska v1.0.0
Video
ID : 1
Format : MPEG-4 Visual
Format profile : Advanced Simple@L5
Format settings, BVOP : Yes
Format settings, QPel : No
Format settings, GMC : No warppoints
Format settings, Matrix : Default (H.263)
Codec ID : DX50
Codec ID/Hint : DivX 5
Duration : 1h 28mn
Bit rate : 7 804 Kbps
Width : 1 920 pixels
Height : 1 080 pixels
Display aspect ratio : 16:9
Frame rate : 25.000 fps
Color space : YUV
Chroma subsampling : 4:2:0
Bit depth : 8 bits
Scan type : Progressive
Compression mode : Lossy
Bits/(Pixel*Frame) : 0.151
Stream size : 4.83 GiB (93%)
Writing library : XviD 58
Language : English
Audio
ID : 2
Format : AC-3
Format/Info : Audio Coding 3
Mode extension : CM (complete main)
Codec ID : A_AC3
Duration : 1h 28mn
Bit rate mode : Constant
Bit rate : 448 Kbps
Channel(s) : 6 channels
Channel positions : Front: L C R, Side: L R, LFE
Sampling rate : 48.0 KHz
Bit depth : 16 bits
Compression mode : Lossy
Delay relative to video : 18ms
Stream size : 284 MiB (5%)
Благодарности релизеру (0)

Торрент:

Статус:

Размер:

Зарегистрирован   [ 2011-03-05 20:13 ]

проверено

5.21 GB

 
Комментарии:

1, 2  След.






Спасибо, Босс!
Самое смешное, что я только что закончил подгонку рус.дорожки к нему, но у меня версия похоже хуже (ТВрип, да ещё и со сбоем в середине на 79 секунд). Ирония судьбы, однако!
 

ash61
Это тот же тврип (он вообще похоже пока что один в Инете), просто я в него вставил одну сцену 2D заместо той, которая со сбоем, чтобы сюжет не терять и звук 5.1 оставить.
 

Да там на забугорном два варианта - мкв и тс. Может они и с одной бочки. У меня тс, другой вариант скачивать было обломно - оч медленный файлообменник, ну и как всегда без возможности докачки. Это мне пришлось бы неделю качать круглосуточно! Ладно, для интереса сравню.
 

ash61
для интереса тебе придется скачать mkv оттуда, т.к. мой рип тоже был тс :)
 

:))) Нет уж, с того файлообменника не буду!
Если не секрет, как переделал в мкв?
 

Хорошо, я беру, что-б никого не обидеть!! И, естесственно, спасибо говорю сейчас Боссу!
 

Может кто нибудь сделает Что бы первая работала на телевизоре самсунг??????
 

AmarokКакая первая?
 

Кти нибудь знает когда Трон Эволюция на 3Д БляРей Выйдет?
 

ash61
через avisynth + virtualdub (пришлось перекодировать, чтобы кусок 2д вставить)
 

tom505
Пожалуйста. А кого ты обидешь, если качать не будешь? :)
 

Авторов фильма.
 

Авторов фильма.
Вот как раз авторов ты обидешь, если будешь качать с торрентов, вместо того, чтобы купить лицензионный диск :)))
 

спасибо!!!
 

Спасибо, Босс!
Самое смешное, что я только что закончил подгонку рус.дорожки к нему, но у меня версия похоже хуже (ТВрип, да ещё и со сбоем в середине на 79 секунд). Ирония судьбы, однако!
Ого ! А на какой минуте, если помнишь ? Похоже у меня тот же рип со СкайТв, но посмотреть все как то не плучалось !
Босс! а можно в релизах оставлять оригинальный трек? Лишние 500 Мб особой погоды не сделают, а держать 2 одинаковых релиза на харде как-то не хочется!
 

TheJoker
кому нужна английская дорога ее прицепить 2 минуты делов а лишние 500Мб для каждого фильма в итоге выльются в Гбайты занятого места.
На 28 минуте вроде бы
 

2 TheJoker
На 0:27:33 проскочило 79 сек (там заметно и по испорченному изображению, ну и звук заметно перескочил).
2 Amarok
Сегодня скачал первую часть (Босса), ещё не пробовал - посмотрим что можно сделать.
2 Sraker
Трон:Наследие - обещают в России 29 марта в БД 3д.
2 boss-master
Покупай уже скорее ТВ пока подешевели и не распроданы! В М-Видео Самсунг 46С7000 - 60 тр, 40С7000 - 48 тр, 46С750 - 50 тр, 40С750 - 46 тр, 50С490 - 38 тр. Это уже явно началась распродажа перед выходом новых моделей. Наверняка можно и ещё подешевле найти.
 

ash61
А если до лета подождать, телевзоры эти будут как 2д стоить, при учете того, что LG анонсировало поляризационные ТВ.
 

2Student-ak37
Есть один нюансик - если это действительно распродажа, то скоро ты просто не найдёшь их, а найдёшь новые модели, соответственно по совсем другой цене! :)
 

ash61
Очередей то за ними не было и нет, так как цена пока еще заоблачная (неоправданно высокая)
 

Страница 1 из 2

1, 2  След.