Торренты   
 
 


История Игрушек-2 3D / Toy Story-2 3D (Джон Лассетер) [1999 г.,1080p, Anamorph SideBySide]

Рейтинг 3D:
Пока никто не голосовал
Рейтинг фильма:
Пока никто не голосовал
 
Вы должны быть авторизированы,
чтобы ставить оценки


История Игрушек-2 3D / Toy Story-2 3D
Год выпуска: 1999
Страна: США
Жанр: Мультфильм, Комедия, Семейный
Продолжительность: 01:28:22
Перевод: Дублированный (Невафильм - Базз Лайтер)
Режиссер: Джон Лассетер
Роли озвучивали: Том Хэнкс — Вуди
Тим Аллен — Базз Лайтер
Дон Риклз — Мистер Картофельная голова
Джим Верни — Слинки
Уоллес Шоун — Рекс
Джон Ратцнбергер — Хэм
Описание: Ковбой Вуди и другие игрушки продолжают свою жизнь в семье мальчика Энди, радуясь каждому дню. Но однажды Вуди похищает коварный коллекционер — ковбой оказывается редкой игрушкой из комплекта, за который японский музей игрушек готов заплатить крупную сумму. В доме коварного коллекционера он находит своих родственников. Остальные игрушки во главе с Баззом Лайтером решают выручить Вуди и отправляются за ним.
Вуди узнает многое из своего прошлого, находит новых друзей и, возможно, впервые задается вопросом — каков смысл его существования?
TVRip
Формат 3d: Anamorph SideBySide
Порядок ракурсов: Параллельная пара

Скриншоты




MediaInfo

General
Format : Matroska
File size : 5.21 GiB
Duration : 1h 28mn
Overall bit rate : 8 420 Kbps
Encoded date : UTC 2011-03-04 17:41:15
Writing application : mkvmerge v4.4.0 ('Die Wiederkehr') сборка от Oct 31 2010 21:52:48
Writing library : libebml v1.0.0 + libmatroska v1.0.0
Video
ID : 1
Format : MPEG-4 Visual
Format profile : Advanced Simple@L5
Format settings, BVOP : Yes
Format settings, QPel : No
Format settings, GMC : No warppoints
Format settings, Matrix : Default (H.263)
Codec ID : DX50
Codec ID/Hint : DivX 5
Duration : 1h 28mn
Bit rate : 7 804 Kbps
Width : 1 920 pixels
Height : 1 080 pixels
Display aspect ratio : 16:9
Frame rate : 25.000 fps
Color space : YUV
Chroma subsampling : 4:2:0
Bit depth : 8 bits
Scan type : Progressive
Compression mode : Lossy
Bits/(Pixel*Frame) : 0.151
Stream size : 4.83 GiB (93%)
Writing library : XviD 58
Language : English
Audio
ID : 2
Format : AC-3
Format/Info : Audio Coding 3
Mode extension : CM (complete main)
Codec ID : A_AC3
Duration : 1h 28mn
Bit rate mode : Constant
Bit rate : 448 Kbps
Channel(s) : 6 channels
Channel positions : Front: L C R, Side: L R, LFE
Sampling rate : 48.0 KHz
Bit depth : 16 bits
Compression mode : Lossy
Delay relative to video : 18ms
Stream size : 284 MiB (5%)
Благодарности релизеру (0)

Торрент:

Статус:

Размер:

Зарегистрирован   [ 2011-03-05 20:13 ]

проверено

5.21 GB

 
Комментарии:

Пред.  1, 2






2 Student-ak37
Когда я в сентябре хотел купить Самсунг 46В7000 - в прайсах они значились, а реально их нигде уже не было, т.к. были сняты с производства! Пришлось покупать С7000 (за что сейчас и благодарю бога) и совсем по другой цене!
 

Самсунг С7000 46" купил осенью за 99000, после 17000 вернули бонусами ( м-видео)
 

А вчера подключил кабельное цифровое Тв, 13 HD каналов и почти 200 цифровых, пока месяц просмотр бесплатный, ( акция к 8 марта) после будем определяться с пакетами каналов.
 

2 Аnатоliy052
А 3д-канала нету? Сколько стоило подключение, сколько будет абон.плата и нужна ли приставка для нашего Самсунга?
Желающим смотреть Историю игрушек 1 на ТВ-ЮСБ (релиз boss-master - http://torrents3d.ru/viewtopic.php?t=1028):
Сработал рецепт Анатолия: пропустить через tsMuxerGUI. boss-master подробно описал тут - http://torrents3d.ru/viewtopic.php?t=1121&start=40
Только Delay выставить не 8000, а 1300. Задержку задал примерную - кто хочет, может немного подкорректировать как нравится.
 

2 boss-master
Покупай уже скорее ТВ пока подешевели и не распроданы! В М-Видео Самсунг 46С7000 - 60 тр, 40С7000 - 48 тр, 46С750 - 50 тр, 40С750 - 46 тр, 50С490 - 38 тр. Это уже явно началась распродажа перед выходом новых моделей. Наверняка можно и ещё подешевле найти.
Неееее ребята не уговаривайте, у меня уже все деньги ушли на проектор и 3д вижен о чем нисколько не жалею, т.к. размер экрана 1,5х2,0м не сравниться ни с каким телеком ни по эффекту 3Д ни по стоимости каждого дюйма диагонали. ТВ смотрел в магазинах - есть с чем сравнивать.
 

2 boss-master
Ну ты просто вроде писал, что собираешься брать ТВ. На нет - и суда нет! :)
 

ash61
карта доступа и CAM- МОДУЛЬ 2200 РУБ.( в принципе это и есть стоимость подключения) 3д канала пока нет, но в перспективе обещали. провайдер кабельной сети УФАНЕТ. Башкирия с нами соседи, их сеть в Оренбурге, Уфе, Стерлитамаке работает.Карта доступа ( Кам модуль) заменяет приставку, ведь в "нашем" Самсунге встроенный цифровой приемник есть.
 

ash61
Да хотел поначалу, но потом прочитал один пост в котором Woody2 сказал
42 дюйма для 3д маловато.... сидя метра 2.5 от телека... конечно смотрится 3д... но вот как-то нет того удовлетворения который ожидаешь от эффектов... и лишь сев к телеку буквально в метре - вот тогда всякие эффекты закрутились вокруг меня....... но......... при таком близком расстоянии начинает бросаться в глаза качество пережатого контента...
вот тогда я и понял, что ТВ для 3Д отдыхает, а проекторы рулят, т.к. фильмы смотрю не каждый день, а в игры играть практически некогда.
 

boss-master
Авторы обидятся, если я их фильм не посмотрю, а как я это сделаю - не совсем их проблема. Конечно они ничего не получат от просмотра пиратской копии, но есть категория людей, к-рая не при каком раскладе покупать кино по тысяче - или полторы рублей не будут, и в кино тоже не ходят, таких не мало. Значит выбор таков: или просто не смотреть, или смотреть пиратские копии, а потом рассказать друзьям, какой хороший фильм, и невольно сделать ему рекламу. Просто надо посмотреть на мнимую проблему немного с другой стороны, и будет всем счастье, и авторам фильма в том числе!
 

Спасибо.
 

Огромное СПАСИБО !!! С удовольствием посмотрю !!!!
 

Топик был перенесен из форума Фильмы в форум Мультфильмы

Dag13
 

Топик был перенесен из форума Мультфильмы в форум Архив

Dag13
 

Страница 2 из 2

Пред.  1, 2