Торренты   
 
 

 

Альфа и Омега: Клыкастая братва / Alpha and Omega (Энтони Белл, Бен Глюк / Anthony Bell, Ben Gluck) [2010 г., мультфильм, комедия, приключения, семейный, 1080p, BDRip, Anamorph OverUnder ]

Рейтинг 3D:
1 голосов
7.0
Рейтинг фильма:
1 голосов
6.0
 
Вы должны быть авторизированы,
чтобы ставить оценки


© Закрыто правообладателем
Год выпуска: 2010
Страна: США, Индия
Жанр: мультфильм, комедия, приключения, семейный
Продолжительность: 01:28:10
Перевод: Профессиональный (дублированный)
Субтитры: Нет-Режиссер: Энтони Белл, Бен Глюк / Anthony Bell, Ben Gluck
Роли озвучивали: Джастин Лонг, Хайден Панеттьери, Деннис Хоппер, Дэнни Гловер, Ларри Миллер, Эрик Прайс, Викки Льюис, Крис Кармак, Кевин Суссман, Брайан Донован
Описание фильма: Омега - волк, далёкий от высших кругов. Он мечтает познакомиться с самой популярной волчицей в стае - Альфой. И вот судьба подбрасывает ему неплохой шанс - работники заповедника отправляют их в Айдахо. Волку и волчице придётся сплотиться, для того, чтобы вернуться на свою родину.-Релиз группы:
Качество: BDRip
Формат: MKV
Формат 3d: Anamorph OverUnder / Вертикальная анаморфная стереопара
Видео кодек: H264
Аудио кодек: DTS
Видео: MPEG4 Video (H264) / 1920х1080 / 23.98fps / 6498 Кбит/сек
Аудио 1: Rus DTS / 5.1 / 48 kHz / 755 kbps / 24-bit
Аудио 2: Eng DTS / 5.1 / 48 kHz / 755 kbps / 24-bit
Субтитры: Нет-

Скриншоты



Медиа инфо

Общее
Уникальный идентификатор : 225689771753277402985102718559343340940 (0xA9CA44DA4F85014290D113B14D83ED8C)
Полное имя : Альфа_и_Омега_Half_OU_1080p.mkv
Формат : Matroska
Размер файла : 5,03 Гбайт
Продолжительность : 1 ч. 28 м.
Общий поток : 8169 Кбит/сек
Дата кодирования : UTC 2011-03-09 14:26:34
Программа кодирования : mkvmerge v3.4.0 ('Rapunzel') сборка от May 15 2010 09:38:20
Библиотека кодирования : libebml v0.8.0 + libmatroska v0.9.0
Видео
Идентификатор : 1
Формат : AVC
Формат/Информация : Advanced Video Codec
Профиль формата : High@L4.0
Параметр CABAC формата : Да
Параметр ReFrames формата : 4 кадры
Идентификатор кодека : V_MPEG4/ISO/AVC
Продолжительность : 1 ч. 28 м.
Битрейт : 6498 Кбит/сек
Ширина : 1920 пикс.
Высота : 1080 пикс.
Соотношение сторон : 16:9
Частота кадров : 23,976 кадр/сек
Цветовое пространство : YUV
Подвыборка цветности : 4:2:0
Битовая глубина : 8 бит
Тип развёртки : Прогрессивная
Бит/(Пиксели*Кадры) : 0.131
Размер потока : 4,00 Гбайт (80%)
Библиотека кодирования : x264 core 112 r1834 a51816a
Настройки программы : cabac=1 / ref=4 / deblock=1:-3:-3 / analyse=0x3:0x133 / me=umh / subme=8 / psy=1 / psy_rd=0.40:0.05 / mixed_ref=1 / me_range=16 / chroma_me=1 / trellis=2 / 8x8dct=1 / cqm=0 / deadzone=21,11 / fast_pskip=0 / chroma_qp_offset=-3 / threads=6 / sliced_threads=0 / nr=0 / decimate=0 / interlaced=0 / constrained_intra=0 / bframes=6 / b_pyramid=2 / b_adapt=2 / b_bias=0 / direct=3 / weightb=1 / open_gop=0 / weightp=2 / keyint=250 / keyint_min=23 / scenecut=40 / intra_refresh=0 / rc=crf / mbtree=0 / crf=18.0 / qcomp=0.70 / qpmin=0 / qpmax=51 / qpstep=4 / ip_ratio=1.40 / pb_ratio=1.30 / aq=1:0.50
Аудио #1
Идентификатор : 2
Формат : DTS
Формат/Информация : Digital Theater Systems
Идентификатор кодека : A_DTS
Продолжительность : 1 ч. 28 м.
Вид битрейта : Постоянный
Битрейт : 755 Кбит/сек
Канал(ы) : 6 канала(ов)
Расположение каналов : Front: L C R, Side: L R, LFE
Частота : 48,0 КГц
Битовая глубина : 24 бит
Метод сжатия : С потерями
Размер потока : 476 Мбайт (9%)
Заголовок : Дубляж
Язык : Russian
Аудио #2
Идентификатор : 3
Формат : DTS
Формат/Информация : Digital Theater Systems
Идентификатор кодека : A_DTS
Продолжительность : 1 ч. 28 м.
Вид битрейта : Постоянный
Битрейт : 755 Кбит/сек
Канал(ы) : 6 канала(ов)
Расположение каналов : Front: L C R, Side: L R, LFE
Частота : 48,0 КГц
Битовая глубина : 24 бит
Метод сжатия : С потерями
Размер потока : 476 Мбайт (9%)
Заголовок : English_DTS
Язык : English
Меню
00:00:00.000 : :01
00:05:40.048 : :02
00:10:40.723 : :03
00:16:07.133 : :04
00:21:46.388 : :05
00:26:16.116 : :06
00:31:26.927 : :07
00:37:09.227 : :08
00:42:42.351 : :09
00:46:55.896 : :10
00:52:03.454 : :11
00:56:59.374 : :12
01:02:15.732 : :13
01:07:49.899 : :14
01:13:38.748 : :15
01:19:21.507 : :16

Лог кодирования

Благодарности релизеру (10)

Торрент:

Статус:

Размер:

Зарегистрирован   [ 2012-05-06 21:26 ]

© закрыто правообладателем

5.03 GB