Торренты   
 
 


Придурки 3D / Чудаки 3D / Jackass 3D (Джефф Треймейн) [2010 г.,1080i, Anamorph SideBySide]

Рейтинг 3D:
17 голосов
5.6
Рейтинг фильма:
21 голосов
4.9
 
Вы должны быть авторизированы,
чтобы ставить оценки


Придурки 3D / Чудаки 3D / Jackass 3D
Год выпуска: 2010
Страна: США, Румыния
Жанр: документальный, комедия, садо-мазо
Продолжительность: 01:34:01
Перевод: Отсутствует (в принципе, он и не требуется, ИМХО)
Режиссер: Джефф Треймейн
В ролях: Джонни Ноксвил, Бэм Марджера, Райан Данн, Стив-О, Джейсон Акуна, Престон Лэси, Крис Понтиус, Эрен МакГехи, Дэйв Инглэнд
Описание: Скандальная, саркастическая, грубая и абсолютно сумасбродная команда Джонни Ноксвила опять готова шокировать, смешить и срывать крышу, и в этот раз они удивят еще больше. Теперь каждый может стать почти соучастником событий, поскольку наблюдать за выходками чудаков можно будет в формате 3D. Фильм состоит из ряда экстремальных трюков, нерядовых шуток и безумных экспериментов, — все это испытает на собственной шкуре эта безумная компания. Никогда не знаешь — плакать или смеяться от их выходок, ведь они демонстрируют то, что каждый тайком хотел сделать, но боялся попробовать.
Sat-Cap
Формат 3d: Anamorph SideBySide
Порядок ракурсов: Параллельная пара

Скриншоты





MediaInfo

General
Format : MPEG-PS
File size : 13.0 GiB
Duration : 1h 34mn
Overall bit rate : 19.7 Mbps
Video
ID : 224 (0xE0)
Format : MPEG Video
Format version : Version 2
Format profile : Main@High
Format settings, BVOP : Yes
Format settings, Matrix : Default
Format settings, GOP : M=3, N=15
Duration : 1h 34mn
Bit rate mode : Variable
Bit rate : 20.0 Mbps
Width : 1 920 pixels
Height : 1 080 pixels
Display aspect ratio : 16:9
Frame rate : 29.970 fps
Color space : YUV
Chroma subsampling : 4:2:0
Bit depth : 8 bits
Scan type : Interlaced
Scan order : Top Field First
Compression mode : Lossy
Bits/(Pixel*Frame) : 0.322
Stream size : 12.5 GiB (97%)
Audio
ID : 192 (0xC0)
Format : MPEG Audio
Format version : Version 1
Format profile : Layer 2
Duration : 1h 34mn
Bit rate mode : Constant
Bit rate : 256 Kbps
Channel(s) : 2 channels
Sampling rate : 48.0 KHz
Compression mode : Lossy
Delay relative to video : -102ms
Stream size : 172 MiB (1%)
Остальные раздачи этого фильма (2)
Благодарности релизеру (2)

Торрент:

Статус:

Размер:

Зарегистрирован   [ 2011-03-10 19:55 ]

проверено

12.95 GB