Торренты   
 
 


Трон: Наследие 3Д / TRON: Legacy 3D (Джозеф Косински / Joseph Kosinski) [2010 г., Anamorph SideBySide]

Выклалывать ли Red-Cyan Anaglyph Трона, даже если опять будут проблемы со скоростью раздачи ?

НЕТ   66%  66%  [ 16 ]
ДА   33%  33%  [ 8 ]

Всего проголосовало : 24

Рейтинг 3D:
Пока никто не голосовал
Рейтинг фильма:
Пока никто не голосовал
 
Вы должны быть авторизированы,
чтобы ставить оценки


Трон: Наследие 3Д / TRON: Legacy 3D
Год выпуска: 2010
Страна: США
Жанр: Фантастика, боевик, триллер, приключения
Продолжительность: 02:05:08
Перевод: Профессиональный (полное дублирование)
Режиссер: Джозеф Косински / Joseph Kosinski
В ролях: Джефф Бриджес, Гаррет Хедлунд, Оливия Уайлд, Брюс Бокслейтнер, Джеймс Фрейн, Бо Гарретт, Майкл Шин, Элизабет Мэтис
Описание: Сэм Флинн, технически одарённый 27-летний сын Кевина Флинна, начинает расследовать исчезновение своего отца и оказывается втянутым в тот же мир жестоких программ и гладиаторских игр, в котором его отец жил на протяжении 20 лет. Вместе с помощницей Кевина отец и сын пускаются в рискованное путешествие за жизнью по поражающей взгляд кибер-вселенной, которая стала ещё более совершенной и чрезвычайно опасной.
Формат 3d: Anamorph SideBySide

MediaInfo

General
Complete name : Tron-Legacy_3D-(2010)-RuDubEn.1080p.half-SBS.mkv.mkv
Format : Matroska
File size : 11.5 GiB
Duration : 2h 5mn
Overall bit rate : 13.1 Mbps
Encoded date : UTC 2011-03-11 02:13:06
Writing application : mkvmerge v4.5.0 ('Speed of Light') built on Feb 1 2011 02:10:32
Writing library : libebml v1.2.0 + libmatroska v1.1.0
Video
ID : 1
Format : AVC
Format/Info : Advanced Video Codec
Format profile : High@L4.1
Format settings, CABAC : Yes
Format settings, ReFrames : 4 frames
Muxing mode : Header stripping
Codec ID : V_MPEG4/ISO/AVC
Duration : 2h 5mn
Bit rate : 11.0 Mbps
Width : 1 920 pixels
Height : 1 080 pixels
Display aspect ratio : 16:9
Frame rate : 23.976 fps
Color space : YUV
Chroma subsampling : 4:2:0
Bit depth : 8 bits
Scan type : Progressive
Bits/(Pixel*Frame) : 0.221
Stream size : 9.60 GiB (84%)
Title : Tron.Legacy.3D.2010.ENG.DTS.1080p.3DBD.x264.half.SBS.z-man
Writing library : x264 core 114 r1913 5fd3dce
Encoding settings : cabac=1 / ref=4 / deblock=1:-1:-1 / analyse=0x3:0x113 / me=umh / subme=7 / psy=1 / psy_rd=1.00:0.15 / mixed_ref=1 / me_range=16 / chroma_me=1 / trellis=1 / 8x8dct=1 / cqm=0 / deadzone=21,11 / fast_pskip=1 / chroma_qp_offset=-3 / threads=18 / sliced_threads=0 / nr=0 / decimate=1 / interlaced=0 / constrained_intra=0 / bframes=3 / b_pyramid=2 / b_adapt=1 / b_bias=0 / direct=3 / weightb=1 / open_gop=0 / weightp=2 / keyint=250 / keyint_min=23 / scenecut=40 / intra_refresh=0 / rc_lookahead=40 / rc=crf / mbtree=1 / crf=18.0 / qcomp=0.60 / qpmin=10 / qpmax=69 / qpstep=4 / ip_ratio=1.40 / aq=1:1.00
Audio #1
ID : 2
Format : AC-3
Format/Info : Audio Coding 3
Mode extension : CM (complete main)
Muxing mode : Header stripping
Codec ID : A_AC3
Duration : 2h 5mn
Bit rate mode : Constant
Bit rate : 384 Kbps
Channel(s) : 6 channels
Channel positions : Front: L C R, Side: L R, LFE
Sampling rate : 48.0 KHz
Bit depth : 16 bits
Stream size : 344 MiB (3%)
Title : Дубляж
Language : Russian
Audio #2
ID : 3
Format : DTS
Format/Info : Digital Theater Systems
Muxing mode : Header stripping
Codec ID : A_DTS
Duration : 2h 5mn
Bit rate mode : Constant
Bit rate : 1 510 Kbps
Channel(s) : 6 channels
Channel positions : Front: L C R, Side: L R, LFE
Sampling rate : 48.0 KHz
Bit depth : 24 bits
Stream size : 1.32 GiB (11%)
Language

Скриншоты







Благодарности релизеру (1)

Торрент:

Статус:

Размер:

Зарегистрирован   [ 2011-03-11 08:12 ]

проверено

11.49 GB

 
Комментарии:

Пред.  1, 2, 3, 4, 5, 6, 7






WiiRus
Ну ты если любишь киберпанк, то смотри не здоровье, а по мне фильм гамно
Толя, грубовато сказано...
А ты чо, адвокат? ))))))
 

Выкладывать ли Red-Cyan Anaglyph Трона, даже если опять будут проблемы со скоростью раздачи ?
НЕТ 68% 68% [ 11 ]
ДА 31% 31% [ 5 ]
Вывод- в жеппу анаглиф!!!
 

Аnатоliy052
Толя, тебя какая оса в задницу ужалила ???
 

Student-ak37
Не защищай хамов
 

Спасибо за раздачу.Сам фильм конечно так себе 3D на Самсунге без всяких там вылетов, но картинка глубокая и эфект вполне приличный! Звуковая дорожка супер. Всем кто смотрит с нормальным звуком рекомендую.
 

Наконец-то посмотрели всей семьей...как ни странно понравилось всем!И мне,и жене ну детям само-собой!Честно говоря сел смотреть без особого интузиазма,но приятно ошибся!Красочный фильм и с 3д все в порядке!Ради интереса посмотрел в разных очках-все в порядке даже в анаглифе!!!Правда сюжет немного отдает Родригесом "Дети шпионов" даже прием реальный мир плоский а виртуальный трехмерный слизнули! :))) А так вобщем то нормальный фильм!Спасибо за раздачу!!! :)
 

Топик был перенесен из форума Фильмы HD в форум Архив

Dag13
 

Страница 7 из 7

Пред.  1, 2, 3, 4, 5, 6, 7