Торренты   
 
 

 

Трон: Наследие 3Д / TRON: Legacy 3D (Джозеф Косински / Joseph Kosinski) [2010 г., Anamorph SideBySide]

Рейтинг 3D:
79 голосов
7.1
Рейтинг фильма:
72 голосов
7.1
 
Вы должны быть авторизированы,
чтобы ставить оценки


Трон: Наследие 3Д / TRON: Legacy 3D
Год выпуска: 2010
Страна: США
Жанр: Фантастика, боевик, триллер, приключения
Продолжительность: 02:05:08
Перевод: Профессиональный (полное дублирование)
Режиссер: Джозеф Косински / Joseph Kosinski
В ролях: Джефф Бриджес, Гаррет Хедлунд, Оливия Уайлд, Брюс Бокслейтнер, Джеймс Фрейн, Бо Гарретт, Майкл Шин, Серинда Свон, Йайа ДаКоста, Элизабет Мэтис
Описание: Сэм Флинн, технически одарённый 27-летний сын Кевина Флинна, начинает расследовать исчезновение своего отца и оказывается втянутым в тот же мир жестоких программ и гладиаторских игр, в котором его отец жил на протяжении 20 лет. Вместе с помощницей Кевина отец и сын пускаются в рискованное путешествие за жизнью по поражающей взгляд кибер-вселенной, которая стала ещё более совершенной и чрезвычайно опасной.
Доп. информация: Перепост раздачи Бегемотика с рутрекера.
Формат 3d: Anamorph SideBySide
Порядок ракурсов: Параллельная пара
Видео: MPEG4 Video (H264) 1920x1080 23.98fps 11.0 Mbps
Format : Matroska
File size : 11.7 GiB
Duration : 2h 5mn
Overall bit rate : 13.4 Mbps
Encoded date : UTC 2011-03-11 03:33:54
Writing application : mkvmerge v2.9.7 ('Tenderness') built on Jul 1 2009 18:43:35
Writing library : libebml v0.7.7 + libmatroska v0.8.1

MediaInfo

Video
ID : 1
Format : AVC
Format/Info : Advanced Video Codec
Format profile : High@L4.1
Format settings, CABAC : Yes
Format settings, ReFrames : 4 frames
Muxing mode : Container profile=Unknown@4.1
Codec ID : V_MPEG4/ISO/AVC
Duration : 2h 5mn
Bit rate : 11.0 Mbps
Width : 1 920 pixels
Height : 1 080 pixels
Display aspect ratio : 16:9
Frame rate : 23.976 fps
Color space : YUV
Chroma subsampling : 4:2:0
Bit depth : 8 bits
Scan type : Progressive
Bits/(Pixel*Frame) : 0.221
Stream size : 9.60 GiB (82%)
Writing library : x264 core 114 r1913 5fd3dce
Encoding settings : cabac=1 / ref=4 / deblock=1:-1:-1 / analyse=0x3:0x113 / me=umh / subme=7 / psy=1 / psy_rd=1.00:0.15 / mixed_ref=1 / me_range=16 / chroma_me=1 / trellis=1 / 8x8dct=1 / cqm=0 / deadzone=21,11 / fast_pskip=1 / chroma_qp_offset=-3 / threads=18 / sliced_threads=0 / nr=0 / decimate=1 / interlaced=0 / constrained_intra=0 / bframes=3 / b_pyramid=2 / b_adapt=1 / b_bias=0 / direct=3 / weightb=1 / open_gop=0 / weightp=2 / keyint=250 / keyint_min=23 / scenecut=40 / intra_refresh=0 / rc_lookahead=40 / rc=crf / mbtree=1 / crf=18.0 / qcomp=0.60 / qpmin=10 / qpmax=69 / qpstep=4 / ip_ratio=1.40 / aq=1:1.00
Language : English
Audio #1
ID : 2
Format : AC-3
Format/Info : Audio Coding 3
Mode extension : CM (complete main)
Codec ID : A_AC3
Duration : 2h 5mn
Bit rate mode : Constant
Bit rate : 640 Kbps
Channel(s) : 6 channels
Channel positions : Front: L C R, Side: L R, LFE
Sampling rate : 48.0 KHz
Bit depth : 16 bits
Stream size : 573 MiB (5%)
Language : Russian
Audio #2
ID : 3
Format : DTS
Format/Info : Digital Theater Systems
Codec ID : A_DTS
Duration : 2h 5mn
Bit rate mode : Constant
Bit rate : 1 510 Kbps
Channel(s) : 6 channels
Channel positions : Front: L C R, Side: L R, LFE
Sampling rate : 48.0 KHz
Bit depth : 24 bits
Stream size : 1.32 GiB (11%)
Language : English

Скриншоты







Остальные раздачи этого фильма (7)
Благодарности релизеру (5)

Торрент:

Статус:

Размер:

Зарегистрирован   [ 2011-12-16 23:14 ]

проверено

11.72 GB