Торренты   
 
 

 

Рапунцель: Запутанная история / Tangled (Натан Грено, Байрон Ховард) [2010 г, 1080p, Anamorph SideBySide]

Рейтинг 3D:
102 голосов
8.7
Рейтинг фильма:
107 голосов
8.7
 
Вы должны быть авторизированы,
чтобы ставить оценки


© Закрыто правообладателем
Год выпуска: 2010
Страна: США
Жанр: Мультфильм, Мюзикл, Фэнтези, Комедия
Продолжительность: 01:40:16
Перевод: Профессиональный (полное дублирование)
Режиссер: Натан Грено, Байрон Ховард
Роли озвучивали [rus]: Виктория Дайнеко, Григорий Антипенко, Андрей Бирин (вокал), Мария Кац, Григорий Перель, Денис Некрасов, Антон Эльдаров, Владимир Майсурадзе, Антон Батырев.
[eng]: Мэнди Мур, Захари Левай, Донна Мерфи, Рон Перлман, М.К.Гейни, Джефри Тэмбор, Брэд Гэррет, Пол Ф.Томпкинс, Ричард Кил, Делани Роуз Стейн.
Описание: Обаятельный разбойник Флинн путешествует по жизни с легкостью, лишь потому, что он красив, болтлив и удачлив. И казалось, фортуна всегда на его стороне, пока однажды он не выбирает высокую башню в густой чаще леса в качестве «спокойного» убежища. Флинн оказывается связанным по рукам и ногам юной красавицей по имени Рапунцель. Если вы думаете, что самое интересное в ней — это 21 метр волшебных золотистых волос, то вы заблуждаетесь! Запертая в башне и отчаянно ищущая приключений, Рапунцель решает использовать Флинна в качестве билета в большой мир. Сначала комичное похищение, затем невинный шантаж — и вот наши герои на воле. Вместе с главными героями в авантюрное путешествие отправятся бравый конь-ищейка Максимус, ручной хамелеон и шайка сумасбродных разбойников.
Формат 3d: Anamorph SideBySide
Порядок ракурсов: Параллельная пара
Качество: BDRip (by z-man)
Контейнер: MKV
Видео: AVC / 1920х1080p / 23,976 fps / 6794 kbps
Аудио [rus]: AC3 / 6ch / 384 Kbps / 48 KHz
Аудио [eng]: DTS / 6 ch / 1510 kbps / 48 KHz

MediaInfo

General
UniqueID : 239763734799837428468087242852238006074 (0xB460D0CDF95333CD933CB990A426973A)
Complete name : F:\Downloads\Tangled.am.mkv
Format : Matroska
File size : 6.21 GiB
Duration : 1h 40mn
Overall bit rate : 8 858 Kbps
Encoded date : UTC 2011-03-16 21:13:05
Writing application : mkvmerge v4.4.0 ('Die Wiederkehr') сборка от Oct 31 2010 21:52:48
Writing library : libebml v1.0.0 + libmatroska v1.0.0
Video
ID : 1
Format : AVC
Format/Info : Advanced Video Codec
Format profile : High@L4.1
Format settings, CABAC : Yes
Format settings, ReFrames : 4 frames
Codec ID : V_MPEG4/ISO/AVC
Duration : 1h 40mn
Bit rate : 6 788 Kbps
Width : 1 920 pixels
Height : 1 080 pixels
Display aspect ratio : 3.556
Original display aspect ratio : 16:9
Frame rate : 23.976 fps
Color space : YUV
Chroma subsampling : 4:2:0
Bit depth : 8 bits
Scan type : Progressive
Bits/(Pixel*Frame) : 0.137
Stream size : 4.76 GiB (77%)
Title : Tangled.3D.2010.ENG.DTS.1080p.3DBD.x264.half.SBS.z-man
Writing library : x264 core 114 r1913 5fd3dce
Encoding settings : cabac=1 / ref=4 / deblock=1:-1:-1 / analyse=0x3:0x113 / me=umh / subme=7 / psy=1 / psy_rd=1.00:0.15 / mixed_ref=1 / me_range=16 / chroma_me=1 / trellis=1 / 8x8dct=1 / cqm=0 / deadzone=21,11 / fast_pskip=1 / chroma_qp_offset=-3 / threads=18 / sliced_threads=0 / nr=0 / decimate=1 / interlaced=0 / constrained_intra=0 / bframes=3 / b_pyramid=2 / b_adapt=1 / b_bias=0 / direct=3 / weightb=1 / open_gop=0 / weightp=2 / keyint=250 / keyint_min=23 / scenecut=40 / intra_refresh=0 / rc_lookahead=40 / rc=crf / mbtree=1 / crf=18.0 / qcomp=0.60 / qpmin=10 / qpmax=69 / qpstep=4 / ip_ratio=1.40 / aq=1:1.00
Audio #1
ID : 2
Format : AC-3
Format/Info : Audio Coding 3
Mode extension : CM (complete main)
Codec ID : A_AC3
Duration : 1h 40mn
Bit rate mode : Constant
Bit rate : 384 Kbps
Channel(s) : 6 channels
Channel positions : Front: L C R, Side: L R, LFE
Sampling rate : 48.0 KHz
Bit depth : 16 bits
Compression mode : Lossy
Video delay : 13ms
Stream size : 275 MiB (4%)
Language : Russian
Audio #2
ID : 3
Format : DTS
Format/Info : Digital Theater Systems
Codec ID : A_DTS
Duration : 1h 40mn
Bit rate mode : Constant
Bit rate : 1 510 Kbps
Channel(s) : 6 channels
Channel positions : Front: L C R, Side: L R, LFE
Sampling rate : 48.0 KHz
Bit depth : 24 bits
Compression mode : Lossy
Stream size : 1.06 GiB (17%)
Language : English

Скриншоты

19.03.2011 - Желающим звука с максимальным битрейтом (озвучка 1:1), вот дорога
АС3, 6 каналов, 640 kbps, вместо вшитых здесь
АС3, 6 каналов, 384 kbps:
http://narod.ru/disk/7840713001/Tangled.ac3.Blu-ray.640kbps.ac3.html
Объём файла 459 МБ. Спасибо за файл - lex1808!
Остальные раздачи этого фильма (5)
Благодарности релизеру (19)

Торрент:

Статус:

Размер:

Зарегистрирован   [ 2011-03-17 01:34 ]

проверено

6.21 GB