Торренты   
 
 

 

Трон: Наследие / Tron: Legacy (Джозеф Косински) [2010 г., BDRip 1080p, Full OverUnder]

Рейтинг 3D:
79 голосов
7.1
Рейтинг фильма:
72 голосов
7.1
 
Вы должны быть авторизированы,
чтобы ставить оценки


Трон: Наследие / Tron: Legacy
Год выпуска: 2010
Страна: США
Жанр: Фантастика, боевик, триллер, приключения
Продолжительность: 02:05:08
Перевод: Профессиональный (полное дублирование)
Режиссер: Джозеф Косински
В ролях: Джефф Бриджес, Гаррет Хедлунд, Оливия Уайлд, Брюс Бокслейтнер, Джеймс Фрейн, Бо Гарретт, Майкл Шин, Элизабет Мэтис
Описание: Сэм Флинн, технически одарённый 27-летний сын Кевина Флинна, начинает расследовать исчезновение своего отца и оказывается втянутым в тот же мир жестоких программ и гладиаторских игр, в котором его отец жил на протяжении 20 лет. Вместе с помощницей Кевина отец и сын пускаются в рискованное путешествие за жизнью по поражающей взгляд кибер-вселенной, которая стала ещё более совершенной и чрезвычайно опасной.

Формат 3d: OverUnder
Видео: AVC, h264, 1920х2160, 23,976 кадр/сек, 18,4 Мбит/сек
Аудио: Rus, AC-3, 6 каналов, 384 Кбит/сек, 48,0 КГц
Аудио: Eng, AC-3, 6 каналов, 640 Кбит/сек, 48,0 КГц

Скриншоты



me

Общее
Уникальный идентификатор : 192194959167496756408457609203964226593 (0x909767177C0E1BDE89085A0AC01CAC21)
Полное имя : D:\Tron.mkv
Формат : Matroska
Размер файла : 17,3 Гбайт
Продолжительность : 2 ч. 5 м.
Общий поток : 19,8 Мбит/сек
Дата кодирования : UTC 2011-03-13 06:20:24
Программа кодирования : mkvmerge v3.4.0 ('Rapunzel') сборка от May 15 2010 09:38:20
Библиотека кодирования : libebml v0.8.0 + libmatroska v0.9.0
Видео
Идентификатор : 1
Формат : AVC
Формат/Информация : Advanced Video Codec
Профиль формата : High@L5.0
Параметр CABAC формата : Да
Параметр ReFrames формата : 4 кадры
Идентификатор кодека : V_MPEG4/ISO/AVC
Продолжительность : 2 ч. 5 м.
Битрейт : 18,4 Мбит/сек
Ширина : 1920 пикс.
Высота : 2160 пикс.
Соотношение сторон : 0,889
Частота кадров : 23,976 кадр/сек
Цветовое пространство : YUV
Подвыборка цветности : 4:2:0
Битовая глубина : 8 бит
Тип развёртки : Прогрессивная
Бит/(Пиксели*Кадры) : 0.185
Размер потока : 16,1 Гбайт (93%)
Библиотека кодирования : x264 core 114 r1913 5fd3dce
Настройки программы : cabac=1 / ref=4 / deblock=1:0:0 / analyse=0x3:0x113 / me=umh / subme=7 / psy=1 / psy_rd=1.00:0.15 / mixed_ref=1 / me_range=16 / chroma_me=1 / trellis=2 / 8x8dct=1 / cqm=0 / deadzone=21,11 / fast_pskip=1 / chroma_qp_offset=-4 / threads=6 / sliced_threads=0 / nr=0 / decimate=1 / interlaced=0 / constrained_intra=0 / bframes=6 / b_pyramid=0 / b_adapt=2 / b_bias=0 / direct=3 / weightb=1 / open_gop=0 / weightp=2 / keyint=250 / keyint_min=23 / scenecut=40 / intra_refresh=0 / rc_lookahead=40 / rc=crf / mbtree=1 / crf=20.0 / qcomp=0.60 / qpmin=0 / qpmax=69 / qpstep=4 / ip_ratio=1.40 / aq=1:1.00
Аудио #1
Идентификатор : 2
Формат : AC-3
Формат/Информация : Audio Coding 3
Расширение режима : CM (complete main)
Идентификатор кодека : A_AC3
Продолжительность : 2 ч. 5 м.
Вид битрейта : Постоянный
Битрейт : 384 Кбит/сек
Канал(ы) : 6 канала(ов)
Расположение каналов : Front: L C R, Side: L R, LFE
Частота : 48,0 КГц
Битовая глубина : 16 бит
Метод сжатия : С потерями
Задержка видео : 959 мс.
Размер потока : 344 Мбайт (2%)
Язык : Russian
Аудио #2
Идентификатор : 3
Формат : AC-3
Формат/Информация : Audio Coding 3
Расширение режима : CM (complete main)
Идентификатор кодека : A_AC3
Продолжительность : 2 ч. 5 м.
Вид битрейта : Постоянный
Битрейт : 640 Кбит/сек
Канал(ы) : 6 канала(ов)
Расположение каналов : Front: L C R, Side: L R, LFE
Частота : 48,0 КГц
Битовая глубина : 16 бит
Метод сжатия : С потерями
Размер потока : 573 Мбайт (3%)
Язык : English
Остальные раздачи этого фильма (7)
Благодарности релизеру (11)

Торрент:

Статус:

Размер:

Зарегистрирован   [ 2011-09-04 21:23 ]

проверено

17.3 GB