Торренты   
 
 


Путешествия Гулливера 3D / Gulliver's Travels 3D (Роб Леттерман) [2010 г., Anamorph SideBySide]

Рейтинг 3D:
Пока никто не голосовал
Рейтинг фильма:
Пока никто не голосовал
 
Вы должны быть авторизированы,
чтобы ставить оценки


Путешествия Гулливера 3D / Gulliver's Travels 3D
Год выпуска: 2010
Страна: США
Жанр: фэнтези, комедия, приключения, семейный, мультфильм
Продолжительность: 01:24:42
Перевод: Профессиональный (полное дублирование)
Режиссер: Роб Леттерман
В ролях: Джек Блэк, Джейсон Сигел, Эмили Блант, Аманда Пит, Билли Коннолли, Криc О’Дауд, ТиДжей Миллер, Джеймс Корден, Кэтрин Тейт, Эмманюэль Куатра
Описание: Лемюэль Гулливер, ищущий славы и сенсационного материала, отправляется в Бермудский треугольник, одно из самых таинственных мест планеты. Оттуда шторм уносит его в неизвестном направлении к острову, населенному крошечным народом, благодаря которому Гулливер вырвется из своего тесного мирка в большой мир.
Формат 3d: Anamorph SideBySide
Порядок ракурсов: Параллельная пара

Скриншоты



MediaInfo

General
Format : Matroska
File size : 7.07 GiB
Duration : 1h 24mn
Overall bit rate : 11.9 Mbps
Encoded date : UTC 2011-03-13 10:28:14
Writing application : mkvmerge v4.4.0 ('Die Wiederkehr') сборка от Oct 31 2010 21:52:48
Writing library : libebml v1.0.0 + libmatroska v1.0.0
Video
ID : 1
Format : AVC
Format/Info : Advanced Video Codec
Format profile : High@L4.1
Format settings, CABAC : Yes
Format settings, ReFrames : 4 frames
Format settings, GOP : M=4, N=32
Codec ID : V_MPEG4/ISO/AVC
Duration : 1h 24mn
Bit rate : 11.0 Mbps
Width : 1 920 pixels
Height : 1 080 pixels
Display aspect ratio : 16:9
Frame rate : 23.976 fps
Color space : YUV
Chroma subsampling : 4:2:0
Bit depth : 8 bits
Scan type : Progressive
Bits/(Pixel*Frame) : 0.220
Stream size : 6.48 GiB (92%)
Writing library : x264 core 114 r1913 5fd3dce
Encoding settings : cabac=1 / ref=4 / deblock=1:-1:-1 / analyse=0x3:0x113 / me=umh / subme=7 / psy=1 / psy_rd=1.00:0.15 / mixed_ref=1 / me_range=16 / chroma_me=1 / trellis=1 / 8x8dct=1 / cqm=0 / deadzone=21,11 / fast_pskip=1 / chroma_qp_offset=-3 / threads=18 / sliced_threads=0 / nr=0 / decimate=1 / interlaced=0 / constrained_intra=0 / bframes=3 / b_pyramid=2 / b_adapt=1 / b_bias=0 / direct=3 / weightb=1 / open_gop=0 / weightp=2 / keyint=250 / keyint_min=23 / scenecut=40 / intra_refresh=0 / rc_lookahead=40 / rc=crf / mbtree=1 / crf=18.0 / qcomp=0.60 / qpmin=10 / qpmax=69 / qpstep=4 / ip_ratio=1.40 / aq=1:1.00
Language : English
Audio
ID : 2
Format : DTS
Format/Info : Digital Theater Systems
Codec ID : A_DTS
Duration : 1h 24mn
Bit rate mode : Constant
Bit rate : 755 Kbps
Channel(s) : 6 channels
Channel positions : Front: L C R, Side: L R, LFE
Sampling rate : 48.0 KHz
Bit depth : 24 bits
Compression mode : Lossy
Stream size : 457 MiB (6%)
Language : Russian
Благодарности релизеру (3)

Торрент:

Статус:

Размер:

Зарегистрирован   [ 2011-03-13 15:24 ]

проверено

7.07 GB