Торренты   
 
 

 

Медведь Йоги 3D / Yogi Bear 3D (Эрик Бревиг) [2010 г., Anamorph SideBySide]

Рейтинг 3D:
32 голосов
8.0
Рейтинг фильма:
31 голосов
7.7
 
Вы должны быть авторизированы,
чтобы ставить оценки


Медведь Йоги 3D / Yogi Bear 3D
Год выпуска: 2010
Страна: США
Жанр: Комедия, Приключения, Семейный, Фэнтази
Продолжительность: 01:20:16
Перевод: Профессиональный (полное дублирование)
Режиссер: Эрик Бревиг
В ролях: Дэн Эйкройд, Джастин Тимберлэйк, Анна Фэрис, Томас Кэвэна, ТиДжей Миллер, Натан Кордри, Эндрю Дэйли, Джош Роберт Томпсон, Дэвид Стотт, Грег Джонсон
Описание: Дела в Джеллистоунском парке идут не очень, и жадный мэр Браун решает закрыть его и продать землю. А это значит, что многие семьи больше не смогут насладиться красотами природы, но, что еще хуже, Йоги и его друг Бу-Бу будут выброшены из их единственного дома, где они прожили всю жизнь. Приняв теперь величайший вызов в своей жизни, Йоги должен доказать, что он действительно «умнее обычных медведей». Он и Бу-Бу объединяются со своим старым противником рейнджером Смитом, чтобы найти способ спасти Джеллистоун от закрытия.
Формат 3d: Anamorph SideBySide
Порядок ракурсов: Параллельная пара

Скриншоты




MediaInfo

General
Format : Matroska
File size : 6.81 GiB
Duration : 1h 20mn
Overall bit rate : 12.2 Mbps
Movie name : Yogi_Bear_3D.Title1051.Bluray3DRip
Encoded date : UTC 2011-03-24 13:55:10
Writing application : mkvmerge v4.4.0 ('Die Wiederkehr') сборка от Oct 31 2010 21:52:48
Writing library : libebml v1.0.0 + libmatroska v1.0.0
Video
ID : 1
Format : AVC
Format/Info : Advanced Video Codec
Format profile : High@L5.1
Format settings, CABAC : Yes
Format settings, ReFrames : 2 frames
Codec ID : V_MPEG4/ISO/AVC
Duration : 1h 20mn
Bit rate : 11.5 Mbps
Width : 1 920 pixels
Height : 1 080 pixels
Display aspect ratio : 16:9
Frame rate : 23.976 fps
Color space : YUV
Chroma subsampling : 4:2:0
Bit depth : 8 bits
Scan type : Progressive
Bits/(Pixel*Frame) : 0.232
Stream size : 6.46 GiB (95%)
Writing library : x264 core
Color primaries : BT.709-5, BT.1361, IEC 61966-2-4, SMPTE RP177
Transfer characteristics : BT.709-5, BT.1361
Matrix coefficients : BT.709-5, BT.1361, IEC 61966-2-4 709, SMPTE RP177
Audio
ID : 2
Format : AC-3
Format/Info : Audio Coding 3
Mode extension : CM (complete main)
Codec ID : A_AC3
Duration : 1h 20mn
Bit rate mode : Constant
Bit rate : 384 Kbps
Channel(s) : 6 channels
Channel positions : Front: L C R, Side: L R, LFE
Sampling rate : 48.0 KHz
Bit depth : 16 bits
Compression mode : Lossy
Stream size : 220 MiB (3%)
Торрент перезалит - звук заменен на Лицензию
Остальные раздачи этого фильма (5)
Благодарности релизеру (10)

Торрент:

Статус:

Размер:

Зарегистрирован   [ 2011-03-24 18:12 ]

проверено

6.81 GB