Торренты   
 
 

 

Мегамозг / Megamind [2010 г, 1080p, BDrip, Anamorph OverUnder]

Нужны ли подобные HD-раздачи (с украинской дорогой и пакетом субтитров) на сайте torrents3d?

Да   18%  18%  [ 66 ]
Нет   56%  56%  [ 204 ]
Мне всё равно   24%  24%  [ 89 ]

Всего проголосовало : 359

Рейтинг 3D:
30 голосов
8.5
Рейтинг фильма:
35 голосов
8.8
 
Вы должны быть авторизированы,
чтобы ставить оценки


Мегамозг / Megamind
Год выпуска: 2010
Страна: США
Жанр: Мультфильм, Фантастика, Боевик, Комедия, Семейный
Продолжительность: 01:35:33
Перевод: Профессиональный (дубляж, лицензия) + Профессиональный (двухголосый, закадровый BBC Saint-Petersburg) + Украинский (дубляж, лицензия) + оригинал.
Режиссер: Том МакГрат / Tom McGrath
Роли озвучивали [рус.лиц.]: Илья Исаев, Наталья Грачева, Даниель Кайгермазов, Александр Гаврилин, Денис Беспалый, Александр Новиков.
[eng]: Уилл Феррелл, Брэд Питт, Тина Фей, Джона Хилл, Дэвид Кросс, Джастин Теру, Бен Стиллер, Джессика Шульте, Том МакГрат, Эмили Нордвинд
Описание: Мегамозг — самый гениальный и самый неудачливый злодей в мире. Вот уже много лет он пытается покорить Метро-Сити самыми разнообразными способами. Но каждая такая попытка кончается провалом по вине супергероя по имени Метро-Мэн. Но злодей убивает супергероя, и внезапно Мегамозг лишается цели в жизни. Суперзлодей без супергероя.
Единственный выход — создать нового супергероя, которого он называет Титаном. Но Титан решает, что быть злодеем куда интереснее. Вот только ему не хочется править миром, он желает его уничтожить. Мегамозгу предстоит непростой выбор. Сможет ли злой гений стать героем — спасителем человечества.
Доп.информация: Отдельными файлами прикреплены субтитры (sup): Английский, Эстонский, Немецкий, Иврит, Латышский, Литовский, Румынский, Русский, Турецкий, Украинский

Любопытная информация

• На ранних этапах производства лента носила название «Master Mind». Но позже, ввиду разногласий с компанией Marvel, которая уже зарегистрировала подобное словосочетание, как товарный знак, название фильма пришлось сменить.
• «Мегамозг» стал первой картиной DreamWorks, сделанной в формате HDR (High Dynamic Range).
• В сцене дождя участвовали 700 000 смоделированных по всем законам физики капелек воды.
• Рабочие данные заняли 179 Тб на дисках студии.
• Рендеринг мультфильма занял 54 миллиона часов процессорного времени.
Релиз:
Формат 3d: Anamorph OverUnder
Порядок ракурсов: Левый ракурс сверху
Качество: BDRip
Контейнер: MKV
Видео: AVC / 1920х1080p / 23.976 fps / 6723 Kbps
Аудио#1: Русский / AC3 / 6 ch / 640 Kbps / 48 KHz (дубляж, лицензия)
Аудио#2: Русский / AC3 / 6 ch / 448 Kbps / 48 KHz (закадровый BBC Saint-Petersburg)
Аудио#3: Украинский / AC3 / 6 ch / 640 Kbps / 48 KHz (дубляж, лицензия)
Аудио#4: Английский / AC3 / 6 ch / 640 kbps / 48 KHz

MediaInfo

General
Complete name : F:\Downloads\Megamind.BDrip.am\Megamind.BDrip.am.mkv
Format : Matroska
File size : 6.19 GiB
Duration : 1h 35mn
Overall bit rate : 9 275 Kbps
Encoded date : UTC 2011-04-16 16:59:11
Writing application : mkvmerge v3.4.0 ('Rapunzel') сборка от May 15 2010 09:38:20
Writing library : libebml v0.8.0 + libmatroska v0.9.0
Video
ID : 1
Format : AVC
Format/Info : Advanced Video Codec
Format profile : High@L4.1
Format settings, CABAC : Yes
Format settings, ReFrames : 4 frames
Codec ID : V_MPEG4/ISO/AVC
Duration : 1h 35mn
Bit rate : 6 723 Kbps
Width : 1 920 pixels
Height : 1 080 pixels
Display aspect ratio : 0.889
Original display aspect ratio : 16:9
Frame rate : 23.976 fps
Color space : YUV
Chroma subsampling : 4:2:0
Bit depth : 8 bits
Scan type : Progressive
Bits/(Pixel*Frame) : 0.135
Stream size : 4.49 GiB (72%)
Writing library : x264 core 113 r1884 7313bb5
Encoding settings : cabac=1 / ref=4 / deblock=1:-1:-1 / analyse=0x3:0x113 / me=umh / subme=9 / psy=1 / psy_rd=1.00:0.15 / mixed_ref=1 / me_range=16 / chroma_me=1 / trellis=2 / 8x8dct=1 / cqm=0 / deadzone=21,11 / fast_pskip=1 / chroma_qp_offset=-3 / threads=3 / sliced_threads=0 / nr=0 / decimate=1 / interlaced=0 / constrained_intra=0 / bframes=4 / b_pyramid=2 / b_adapt=2 / b_bias=0 / direct=3 / weightb=1 / open_gop=0 / weightp=2 / keyint=250 / keyint_min=23 / scenecut=40 / intra_refresh=0 / rc_lookahead=40 / rc=crf / mbtree=1 / crf=18.0 / qcomp=0.60 / qpmin=10 / qpmax=69 / qpstep=4 / vbv_maxrate=50000 / vbv_bufsize=50000 / crf_max=0.0 / nal_hrd=none / ip_ratio=1.40 / aq=1:1.00
Audio #1
ID : 2
Format : AC-3
Format/Info : Audio Coding 3
Mode extension : CM (complete main)
Codec ID : A_AC3
Duration : 1h 35mn
Bit rate mode : Constant
Bit rate : 640 Kbps
Channel(s) : 6 channels
Channel positions : Front: L C R, Side: L R, LFE
Sampling rate : 48.0 KHz
Bit depth : 16 bits
Compression mode : Lossy
Video delay : 24ms
Stream size : 438 MiB (7%)
Title : Лицензия
Language : Russian
Audio #2
ID : 3
Format : AC-3
Format/Info : Audio Coding 3
Mode extension : CM (complete main)
Codec ID : A_AC3
Duration : 1h 35mn
Bit rate mode : Constant
Bit rate : 448 Kbps
Channel(s) : 6 channels
Channel positions : Front: L C R, Side: L R, LFE
Sampling rate : 48.0 KHz
Bit depth : 16 bits
Compression mode : Lossy
Video delay : 24ms
Stream size : 306 MiB (5%)
Title : BBC Saint-Petersburg
Language : Russian
Audio #3
ID : 4
Format : AC-3
Format/Info : Audio Coding 3
Mode extension : CM (complete main)
Codec ID : A_AC3
Duration : 1h 35mn
Bit rate mode : Constant
Bit rate : 640 Kbps
Channel(s) : 6 channels
Channel positions : Front: L C R, Side: L R, LFE
Sampling rate : 48.0 KHz
Bit depth : 16 bits
Compression mode : Lossy
Video delay : 24ms
Stream size : 438 MiB (7%)
Language : Ukrainian
Audio #4
ID : 5
Format : AC-3
Format/Info : Audio Coding 3
Mode extension : CM (complete main)
Codec ID : A_AC3
Duration : 1h 35mn
Bit rate mode : Constant
Bit rate : 640 Kbps
Channel(s) : 6 channels
Channel positions : Front: L C R, Side: L R, LFE
Sampling rate : 48.0 KHz
Bit depth : 16 bits
Compression mode : Lossy
Stream size : 438 MiB (7%)
Language : English
Menu
00:00:00.000 : en: 01
00:06:20.589 : en: 02
00:10:03.436 : en: 03
00:15:58.416 : en: 04
00:22:50.536 : en: 05
00:28:01.555 : en: 06
00:32:11.138 : en: 07
00:39:02.757 : en: 08
00:45:12.752 : en: 09
00:52:24.058 : en: 10
00:56:37.394 : en: 11
01:04:30.575 : en: 12
01:10:14.877 : en: 13
01:17:45.786 : en: 14
01:25:55.942 : en: 15

Скриншоты

Господа копипастеры, пожалуйста, уважайте труд рипперов -
не "забывайте" указывать авторство в своих релизах!
Остальные раздачи этого фильма (4)
Благодарности релизеру (12)

Торрент:

Статус:

Размер:

Зарегистрирован   [ 2011-04-16 23:33 ]

проверено

6.71 GB

 
 Мнение о фильме (2)





Мульт шикарен. Графика, звуковые композиции и особенно юмор, лёгкий и понятный. Мульт для всей семьи. Захочется ещё на раз посмотреть.
 

Долго не хотела качать этот мультик.... А ЗРЯ, очень понравился, даже не ожидала. Оказался интересным,динамичным и лёгким для просмотра. СПАСИБО РЕЛИЗЁРУ!!!!!!!!!!!!!!!!