Торренты   
 
 

 

Looney Tunes: Rabid Rider 3D [2010 г., Anamorph SideBySide]

Рейтинг 3D:
2 голосов
8.5
Рейтинг фильма:
1 голосов
9.0
 
Вы должны быть авторизированы,
чтобы ставить оценки


Looney Tunes: Rabid Rider 3D

Год выпуска: 2010
Страна: США
Жанр: мультфильм, короткометражка
Продолжительность: 00:03:03
Продолжение серии
Формат 3d: Anamorph SideBySide
Порядок ракурсов: Параллельная пара

Скриншоты


MediaInfo

General
Format : Matroska
File size : 326 MiB
Duration : 3mn 3s
Overall bit rate : 14.9 Mbps
Movie name : Yogi_Bear_3D.Title1405.Bluray3DRip
Encoded date : UTC 2011-03-15 13:13:09
Writing application : DVDFab
Writing library : libebml v0.7.8 + libmatroska v0.8.1
Video
ID : 3
Format : AVC
Format/Info : Advanced Video Codec
Format profile : High@L5.1
Format settings, CABAC : Yes
Format settings, ReFrames : 2 frames
Codec ID : V_MPEG4/ISO/AVC
Duration : 3mn 3s
Bit rate : 14.2 Mbps
Width : 1 920 pixels
Height : 1 080 pixels
Display aspect ratio : 16:9
Frame rate : 23.976 fps
Color space : YUV
Chroma subsampling : 4:2:0
Bit depth : 8 bits
Scan type : Progressive
Bits/(Pixel*Frame) : 0.286
Stream size : 311 MiB (95%)
Writing library : x264 core
Color primaries : BT.709-5, BT.1361, IEC 61966-2-4, SMPTE RP177
Transfer characteristics : BT.709-5, BT.1361
Matrix coefficients : BT.709-5, BT.1361, IEC 61966-2-4 709, SMPTE RP177
Audio
ID : 4
Format : AC-3
Format/Info : Audio Coding 3
Mode extension : CM (complete main)
Codec ID : A_AC3
Duration : 3mn 3s
Bit rate mode : Constant
Bit rate : 384 Kbps
Channel(s) : 6 channels
Channel positions : Front: L C R, Side: L R, LFE
Sampling rate : 48.0 KHz
Bit depth : 16 bits
Compression mode : Lossy
Stream size : 8.39 MiB (3%)
Language : English
Благодарности релизеру (3)

Торрент:

Статус:

Размер:

Зарегистрирован   [ 2011-03-17 20:24 ]

проверено

326 MB