Торренты   
 
 


Глаз ребёнка 3Д / Child's Eye 3D (Оксид Пан, Дэнни Пан) [2010 г., BDRip 1080p, Anamorph OverUnder]

Рейтинг 3D:
1 голосов
5.0
Рейтинг фильма:
1 голосов
2.0
 
Вы должны быть авторизированы,
чтобы ставить оценки


Глаз ребёнка 3Д / Child's Eye 3D (aka: 童眼) - Год выпуска: 2010
Страна: Гонконг
Жанр: Ужасы, триллер
Продолжительность: 01:37:02
Перевод: Любительский (синхронный) mastering by Pinnhate
Субтитры: русские by KinoKRITIK-Режиссер: Оксид Пан, Дэнни Пан
В ролях: Шон Юе, Ка Танг Лам, Лоуренс Чоу, Джо Кук, Elanne Kwong, Рэйни Ян
Описание фильма: Группа молодых людей из Гонконга в составе 6 человек оказывается запертой в Бангкоке во время антиправительственного протеста в ноябре 2008-го года. Им пришлось остановиться в странном отеле, где, судя по всему, водятся призраки. Трое из группы исчезают таинственным и необъяснимым образом, а остальным предстоит столкнуться со сверхъественными силами.-Релиз группы:
Качество: BDRip
Формат: MKV
Формат 3d: Anamorph OverUnder / Вертикальная анаморфная стереопара
Видео кодек: H264
Аудио кодек: AC-3
Видео: MPEG4 Video (H264) / 1920х1080 / 23.98fps / 6223 Кбит/сек
Аудио 1: Rus AC-3 / 5.1 / 48 kHz / 448 kbps / 16-bit
Аудио 2: Chi AC-3 / 5.1 / 48 kHz / 640 kbps / 16-bit
Субтитры: Rus S_TEXT/ASS-

Скриншоты



Медиа инфо

Общее
Уникальный идентификатор : 207263170962953482466654991446489191769 (0x9BED6F4AA312C2AEB6A7A91499305559)
Полное имя :
Глаз_Ребенка_OU_1080p.mkv
Формат : Matroska
Размер файла : 5,06 Гбайт
Продолжительность : 1 ч. 37 м.
Общий поток : 7460 Кбит/сек
Дата кодирования : UTC 2011-03-17 15:47:09
Программа кодирования : mkvmerge v3.4.0 ('Rapunzel') сборка от May 15 2010 09:38:20
Библиотека кодирования : libebml v0.8.0 + libmatroska v0.9.0
Видео
Идентификатор : 1
Формат : AVC
Формат/Информация : Advanced Video Codec
Профиль формата : High@L4.0
Параметр CABAC формата : Да
Параметр ReFrames формата : 4 кадры
Идентификатор кодека : V_MPEG4/ISO/AVC
Продолжительность : 1 ч. 37 м.
Битрейт : 6223 Кбит/сек
Ширина : 1920 пикс.
Высота : 1080 пикс.
Соотношение сторон : 16:9
Частота кадров : 23,976 кадр/сек
Цветовое пространство : YUV
Подвыборка цветности : 4:2:0
Битовая глубина : 8 бит
Тип развёртки : Прогрессивная
Бит/(Пиксели*Кадры) : 0.125
Размер потока : 4,22 Гбайт (83%)
Библиотека кодирования : x264 core 112 r1834 a51816a
Настройки программы : cabac=1 / ref=4 / deblock=1:-3:-3 / analyse=0x3:0x133 / me=tesa / subme=10 / psy=1 / psy_rd=1.00:0.15 / mixed_ref=1 / me_range=16 / chroma_me=1 / trellis=2 / 8x8dct=1 / cqm=0 / deadzone=21,11 / fast_pskip=0 / chroma_qp_offset=-3 / threads=6 / sliced_threads=0 / nr=0 / decimate=0 / interlaced=0 / constrained_intra=0 / bframes=6 / b_pyramid=2 / b_adapt=2 / b_bias=0 / direct=3 / weightb=1 / open_gop=0 / weightp=2 / keyint=250 / keyint_min=23 / scenecut=40 / intra_refresh=0 / rc=crf / mbtree=0 / crf=19.5 / qcomp=0.70 / qpmin=0 / qpmax=51 / qpstep=4 / ip_ratio=1.40 / pb_ratio=1.30 / aq=1:0.80
Аудио #1
Идентификатор : 2
Формат : AC-3
Формат/Информация : Audio Coding 3
Расширение режима : CM (complete main)
Идентификатор кодека : A_AC3
Продолжительность : 1 ч. 37 м.
Вид битрейта : Постоянный
Битрейт : 448 Кбит/сек
Канал(ы) : 6 канала(ов)
Расположение каналов : Front: L C R, Side: L R, LFE
Частота : 48,0 КГц
Битовая глубина : 16 бит
Метод сжатия : С потерями
Размер потока : 311 Мбайт (6%)
Заголовок : Любительский R1shpil'а, Mastering by Pinnhate
Язык : Russian
Аудио #2
Идентификатор : 3
Формат : AC-3
Формат/Информация : Audio Coding 3
Расширение режима : CM (complete main)
Идентификатор кодека : A_AC3
Продолжительность : 1 ч. 37 м.
Вид битрейта : Постоянный
Битрейт : 640 Кбит/сек
Канал(ы) : 6 канала(ов)
Расположение каналов : Front: L C R, Side: L R, LFE
Частота : 48,0 КГц
Битовая глубина : 16 бит
Метод сжатия : С потерями
Размер потока : 444 Мбайт (9%)
Заголовок : АС-3 Китайский
Язык : Chinese
Текст
Идентификатор : 4
Формат : ASS
Идентификатор кодека : S_TEXT/ASS
Идентификатор кодека/Информация : Advanced Sub Station Alpha
Метод сжатия : Без потерь
Заголовок : Субтитры русские by KinoKRITIK
Язык : Russian
Меню
00:00:00.000 : :01
00:07:32.118 : :02
00:14:02.425 : :03
00:22:47.866 : :04
00:27:54.673 : :05
00:35:17.282 : :06
00:47:05.072 : :07
00:53:11.814 : :08
00:57:42.584 : :09
01:07:29.504 : :10
01:14:04.357 : :11
01:23:09.860 : :12
Благодарности релизеру (3)

Торрент:

Статус:

Размер:

Зарегистрирован   [ 2012-05-06 21:18 ]

проверено

5.06 GB