Торренты   
 
 


Медведь Йоги / Yogi Bear (Эрик Бревиг) [2010 г., OverUnder]

Медведь Йоги / Yogi Bear
Год выпуска: 2010
Страна: США
Жанр: Комедия, Приключения, Семейный, Фэнтази
Продолжительность: 01:20:16
Перевод: Профессиональный (полное дублирование) c TS
Режиссер: Эрик Бревиг
В ролях: Дэн Эйкройд, Джастин Тимберлэйк, Анна Фэрис, Томас Кэвэна, ТиДжей Миллер, Натан Кордри, Эндрю Дэйли, Джош Роберт Томпсон, Дэвид Стотт, Грег Джонсон
Описание: Дела в Джеллистоунском парке идут не очень, и жадный мэр Браун решает закрыть его и продать землю. А это значит, что многие семьи больше не смогут насладиться красотами природы, но, что еще хуже, Йоги и его друг Бу-Бу будут выброшены из их единственного дома, где они прожили всю жизнь. Приняв теперь величайший вызов в своей жизни, Йоги должен доказать, что он действительно «умнее обычных медведей». Он и Бу-Бу объединяются со своим старым противником рейнджером Смитом, чтобы найти способ спасти Джеллистоун от закрытия.
Формат 3d: OverUnder
Видео: AVC, h264, 1920х2160, 23,976 кадр/сек, 22,9 Мбит/сек
Аудио: Rus, MP3, 2 канала, 256 Кбит/сек, 48,0 КГц
Аудио: Eng, AC-3, 6 каналов, 640 Кбит/сек, 48,0 КГц

Скриншоты



me

Общее
Уникальный идентификатор : 190042095886378789465350417485106277036 (0x8EF8C6BCA80C0727B2D10F1F349C6AAC)
Полное имя : D:\Yogi Bear.mkv
Формат : Matroska
Размер файла : 13,6 Гбайт
Продолжительность : 1 ч. 20 м.
Общий поток : 24,3 Мбит/сек
Дата кодирования : UTC 2011-03-19 12:34:01
Программа кодирования : mkvmerge v3.4.0 ('Rapunzel') сборка от May 15 2010 09:38:20
Библиотека кодирования : libebml v0.8.0 + libmatroska v0.9.0
Видео
Идентификатор : 1
Формат : AVC
Формат/Информация : Advanced Video Codec
Профиль формата : High@L5.0
Параметр CABAC формата : Да
Параметр ReFrames формата : 4 кадры
Идентификатор кодека : V_MPEG4/ISO/AVC
Продолжительность : 1 ч. 20 м.
Битрейт : 22,9 Мбит/сек
Ширина : 1920 пикс.
Высота : 2160 пикс.
Соотношение сторон : 0,889
Частота кадров : 23,976 кадр/сек
Цветовое пространство : YUV
Подвыборка цветности : 4:2:0
Битовая глубина : 8 бит
Тип развёртки : Прогрессивная
Бит/(Пиксели*Кадры) : 0.230
Размер потока : 12,9 Гбайт (94%)
Библиотека кодирования : x264 core 108 r1788 c764e29
Настройки программы : cabac=1 / ref=4 / deblock=1:-1:-1 / analyse=0x3:0x113 / me=umh / subme=7 / psy=1 / psy_rd=1.00:0.00 / mixed_ref=1 / me_range=16 / chroma_me=1 / trellis=2 / 8x8dct=1 / cqm=0 / deadzone=21,11 / fast_pskip=1 / chroma_qp_offset=-3 / threads=9 / sliced_threads=0 / nr=0 / decimate=1 / interlaced=0 / constrained_intra=0 / bframes=6 / b_pyramid=0 / b_adapt=2 / b_bias=0 / direct=3 / weightb=1 / open_gop=0 / weightp=2 / keyint=250 / keyint_min=23 / scenecut=40 / intra_refresh=0 / rc_lookahead=40 / rc=crf / mbtree=1 / crf=20.0 / qcomp=0.60 / qpmin=10 / qpmax=51 / qpstep=4 / ip_ratio=1.40 / aq=1:1.00
Язык : English
Аудио #1
Идентификатор : 2
Формат : MPEG Audio
Версия формата : Version 1
Профиль формата : Layer 3
Режим : Joint stereo
Расширение режима : MS Stereo
Идентификатор кодека : A_MPEG/L3
Идентификатор кодека/Подсказка : MP3
Продолжительность : 1 ч. 20 м.
Вид битрейта : Постоянный
Битрейт : 256 Кбит/сек
Канал(ы) : 2 канала(ов)
Частота : 48,0 КГц
Метод сжатия : С потерями
Размер потока : 147 Мбайт (1%)
Библиотека кодирования : LAME3.98.2
Язык : Russian
Аудио #2
Идентификатор : 3
Формат : AC-3
Формат/Информация : Audio Coding 3
Расширение режима : CM (complete main)
Идентификатор кодека : A_AC3
Продолжительность : 1 ч. 20 м.
Вид битрейта : Постоянный
Битрейт : 640 Кбит/сек
Канал(ы) : 6 канала(ов)
Расположение каналов : Front: L C R, Side: L R, LFE
Частота : 48,0 КГц
Битовая глубина : 16 бит
Метод сжатия : С потерями
Размер потока : 368 Мбайт (3%)
Язык : English
Раздача с лицензионной русской дорожкой:http://torrents3d.ru/viewtopic.php?t=1292&view=newest#newest
Yogi Bear.mkv.torrent
Торрент: Не зарегистрирован

Скачать

68 KB

Добавлен: 2011-03-19 17:36
Скачано: 2992 раз  [ Список скачавших ]
   
Комментарии:





Супер-пупер фильм :) Смотрится на одном дыхании..сейчас это большая редкость
 

Ну тебя, Дим, прям прорвало на радость полноразмерщикам!! :)
 

ash61
Да я и сам к ним отношусь, да и Олегу что то клиенту показывать надо, да и проц новый поставил. Еще бы интернет челевеческий...
 

Dag13
Брат. Ты просто красавчик!!!
 

2 Dag13
Ну ты вроде писал, что есть надежды на перспективу с инетом. Дай бы бог!
 

Dag13
будь добр дай ссылку на звук русский? А то в анаморфе с камрипа звук
 

Аnатоliy052
http://rutor.org/torrent/98270/medved-jogi_yogi-bea...-hdrip-zvuk-s-ts
там семпл есть, можеш сравнить. Анаморф не качал, так что сам сравнить не могу.
 

Спасибо за отличное 3D и видео! Даже не у всех BD 3D такое качество.
 

Пора русский дубляж подшивать ! Вроде как вышел сегодня !
 

Пора русский дубляж подшивать ! Вроде как вышел сегодня !
Буду признателен, если кто нибудь сделает это за меня. Две раздачи мне не потянуть.
 

Ну я уж точно после Трона не раздаю через трекер ! (
 

Ну если Даг за, то попробую сюда пришить лиц.звук. Только сначала надо этот релиз скачать.
 

Топик был перенесен из форума Фильмы HD в форум Архив

Dag13