Торренты   
 
 


Путешествия Гулливера 3D / Gulliver's Travels 3D (Роб Леттерман) [2010 г., SideBySide]

Путешествия Гулливера 3D / Gulliver's Travels 3D
Год выпуска: 2010
Страна: США
Жанр: фэнтези, комедия, приключения, семейный
Продолжительность: 01:24:42
Перевод: Профессиональный (полное дублирование)
Режиссер: Роб Леттерман
В ролях: Джек Блэк, Джейсон Сигел, Эмили Блант, Аманда Пит, Билли Коннолли, Криc О’Дауд, ТиДжей Миллер, Джеймс Корден, Кэтрин Тейт, Эмманюэль Куатра
Описание: Лемюэль Гулливер, ищущий славы и сенсационного материала, отправляется в Бермудский треугольник, одно из самых таинственных мест планеты. Оттуда шторм уносит его в неизвестном направлении к острову, населенному крошечным народом, благодаря которому Гулливер вырвется из своего тесного мирка в большой мир.

MediaInfo

Доп. информация: General
Format : Matroska
File size : 11.6 GiB
Duration : 1h 24mn
Overall bit rate : 19.6 Mbps
Movie name : GULLIVERS_TRAVELS.Title800.Bluray3DRip
Encoded date : UTC 2011-03-20 11:37:38
Writing application : mkvmerge v4.6.0 ('Still Crazy After All These Years') сборка от Mar 10 2011 02:50:32
Writing library : libebml v1.2.0 + libmatroska v1.1.0
Video
ID : 1
Format : AVC
Format/Info : Advanced Video Codec
Format profile : High@L5.1
Format settings, CABAC : Yes
Format settings, ReFrames : 1 frame
Muxing mode : Header stripping
Codec ID : V_MPEG4/ISO/AVC
Duration : 1h 24mn
Bit rate mode : Variable
Bit rate : 16.8 Mbps
Maximum bit rate : 22.5 Mbps
Width : 3 840 pixels
Height : 1 080 pixels
Display aspect ratio : 3.556
Frame rate : 23.976 fps
Color space : YUV
Chroma subsampling : 4:2:0
Bit depth : 8 bits
Scan type : Progressive
Bits/(Pixel*Frame) : 0.169
Stream size : 9.94 GiB (86%)
Audio #1
ID : 2
Format : DTS
Format/Info : Digital Theater Systems
Format profile : MA / Core
Muxing mode : Header stripping
Codec ID : A_DTS
Duration : 1h 24mn
Bit rate mode : Variable
Bit rate : 1 561 Kbps / 1 510 Kbps
Channel(s) : 6 channels
Channel positions : Front: L C R, Side: L R, LFE
Sampling rate : 48.0 KHz
Bit depth : 24 bits
Compression mode : Lossless / Lossy
Title : Original DTSHD
Language : English
Audio #2
ID : 3
Format : AC-3
Format/Info : Audio Coding 3
Mode extension : CM (complete main)
Muxing mode : Header stripping
Codec ID : A_AC3
Duration : 1h 24mn
Bit rate mode : Constant
Bit rate : 448 Kbps
Channel(s) : 6 channels
Channel positions : Front: L C R, Side: L R, LFE
Sampling rate : 48.0 KHz
Bit depth : 16 bits
Compression mode : Lossy
Stream size : 271 MiB (2%)
Title : Original DD 5.1
Language : English
Audio #3
ID : 4
Format : AC-3
Format/Info : Audio Coding 3
Mode extension : CM (complete main)
Muxing mode : Header stripping
Codec ID : A_AC3
Duration : 1h 24mn
Bit rate mode : Constant
Bit rate : 448 Kbps
Channel(s) : 6 channels
Channel positions : Front: L C R, Side: L R, LFE
Sampling rate : 48.0 KHz
Bit depth : 16 bits
Compression mode : Lossy
Stream size : 271 MiB (2%)
Title : DUB DD 5.1
Language : Russian
Text #1
ID : 5
Format : UTF-8
Codec ID : S_TEXT/UTF8
Codec ID/Info : UTF-8 Plain Text
Language : English
Text #2
ID : 6
Format : UTF-8
Codec ID : S_TEXT/UTF8
Codec ID/Info : UTF-8 Plain Text
Language : Russian
Формат 3d: SideBySide
Порядок ракурсов: Параллельная пара
Видео: 3840x1080p AVC 23.976 fps
Аудио:
1. Оригинальная дорожка DTS 5.1 1 510 Kbps
2. Оригинальная дорожка AC3 5.1 448 Kbps
3. Русский дубляж AC3 5.1 448 Kbps
Субтитры: Русские, Английские

Скриншоты








Комментарии:





Со скринами есть проблема: я не смог найти способ сделать нормальные полноразмерные скрины стереопары, поэтому эти по сути resize анаморфных скринов которые, очевидно, было сделать весьма просто.
Прошу за это прощения: если кто объяснит как делать полноразмерные скрины стереопары - переделаю!
 

2 WAF
Насколько я знаю, скрины можно сделать и в Медиа Плэйер Классик, и в КМПлэйере. Но правильно (рекомендовано рутрекером) делать в проге AVSP (бесплатная).
И ещё - на ТВ-ЮСБ вряд ли будет читаться - во-первых сжаты заголовки, во-вторых профиль 5.1, в-третьих - русская дорожка идёт третьим номером, т.е. всем придётся переключать дорожки, чтоб дойти до нужной. Сочувствую! :)
 

В МедиаКлассик на стоп кадре - файл - сохранить картинку, заранее в установках можно выбрать в JPG или PNG сохранять. КМПлеер, на стоп кадре правой кнопкой мыши - capture - capture картинку (оригинальный размер), выбрать расширение картинки. Ну и в других плеерах наверно есть, в LVС точно есть, кнопка с фотоаппаратом.
ПС: Одновременно написали:) Про ЮСБ и заголоки к чему? Это не анаморф а полная 1080, только с компа.
 

ash61
Спасибо, AVSP - попробую.
Zagruzin - ты полностью прав про USB и всё такое... я совершенно не хотел повторять анаморф, который уже есть.
Теперь про скрины:
у меня KMP, и честно говоря нет желания ставить MP Classic (хотя ради такого дела можно)), но сначала хочу прояснить одну вещь: мне с помощью KMP удалось (а я пробовал все варианты) сделать скрины только 1920x1080 (т.е. по размеру рабочего стола), вопрос: как сделать 3840x1080 не увеличивая разрешение экрана?
... да, совсем забыл: совершенно не получилось открыть mkv-файл в VirtualDub :-( ни через Avisinth (может быть потому что win x64), ни через утилиту mkv2avi... подозреваю, что и AVSP не получится...
 

WAF
VLC ПЛЕЕР, Правой кнопкой в моменнт воспроизведения на комп. - видео- снимок. в настройках можешь зараннее указать путь сохранения скриншота.
 

2 Zagruzin
Ты как всегда прав - моя невнимательность (со своей колокольни всё рассматриваю)! :)
2 WAF
В Семёрке х64 AVSP работает без проблем (насколько помню) и сохраняет любое разрешение (в оригинальном размере). Что приятно - не требует установки. Удачи!
 

Не везёт со скринами :-(
Avisinth и вместе с ним AVSP отказываются работать и рушатся.... равно как рушатся все приложения, где я пытаюсь открыть скрипт...
VLC player на удивление заработал и даже скрины сделал, но вот качество этих скринов - это просто ужас!!!
В любом случае: спасибо всем за советы... видимо, со скринами не судьба...
 

WAF В АВСП нужно открывать не скрипт, а сам видео файл.
 

WAF
КМР само то, ты просто не ту команду, не тот размер при сохранении выбираешь, то что на экране показывает "текущий размер", а надо выбрать "оригинал сайз" тогда 3840x1080 будет не зависимо как в окне плеера свернуто в оконном режиме. По русски захват-захват кадра в оригинальном размере, по англ каптуре-каптуре имадже:) оригинал сайз. Ну и для максимального качества выбрать PNG, в настройках - ассоциация/захват - захват - формат.
 

Zagruzin
Большое спасибо. По ходу в KMP заработала опция "Извлечение кадра"... извлекал сразу в png.
Частично скачавшие: перезалейте пожалуйста torrent: изменения всего в несколько байт - всё должно сохраниться и докачаться... простите пожалуйста за это!
Я на раздаче пока кто-нибудь не скачает, а там посмотрим - вероятно не смогу всегда быть доступным.
 

Format settings, ReFrames : 1 frame
А что так слабо то?
 

Vorral
Так тож fab.
 

2 Dag13
Просвети, как определяешь, что Фаб?
 

ID : 1
Format : AVC
Format/Info : Advanced Video Codec
Format profile : High@L5.1
Format settings, CABAC : Yes
Format settings, ReFrames : 1 frame
Muxing mode : Header stripping
Codec ID : V_MPEG4/ISO/AVC
Duration : 1h 24mn
Bit rate mode : Variable
Bit rate : 16.8 Mbps
Maximum bit rate : 22.5 Mbps
Width : 3 840 pixels
Height : 1 080 pixels
Display aspect ratio : 3.556
Frame rate : 23.976 fps
Color space : YUV
Chroma subsampling : 4:2:0
Bit depth : 8 bits
Scan type : Progressive
Bits/(Pixel*Frame) : 0.169
Stream size : 9.94 GiB (86%)
Отсутствуют настройки кодирования-раз, реф=1 -два,
 

Топик был перенесен из форума Фильмы HD в форум Архив

Zagruzin