Торренты   
 
 

 

Хроники Нарнии: Покоритель Зари 3D / The Chronicles of Narnia: The Voyage of the Dawn Treader 3D (Майкл Эптид) [2010 г., Anamorph SideBySide]

Рейтинг 3D:
7 голосов
8.9
Рейтинг фильма:
7 голосов
8.1
 
Вы должны быть авторизированы,
чтобы ставить оценки


Хроники Нарнии: Покоритель Зари 3D / The Chronicles of Narnia: The Voyage of the Dawn Treader 3D
Год выпуска: 2010
Страна: США
Жанр: фэнтези, приключения, семейный
Продолжительность: 01:52:40
Перевод: Профессиональный (полное дублирование)
Режиссер: Майкл Эптид
В ролях: Бен Барнс, Скандар Кейнс, Джорджи Хенли, Уилл Поултер, Гари Свит, Тильда Суинтон, Анна Попплуэлл, Уильям Моусли, Лиам Нисон, Саймон Пегг, Терри Норрис, Брюс Спенс.
Описание: Эдмунд, Люси, их кузен Юстас и король Каспиан отплывают на корабле «Покоритель Зари» на поиски друзей отца Каспиана - семи лордов: Ревелиана, Берна, Аргоза, Мавроморна, Октезиана, Рестимара и Рупа, изгнанных во время недолгого правления тирана Мираза.
Формат 3d: Anamorph SideBySide
Порядок ракурсов: Параллельная пара
Видео: MPEG4 Video (H264) 1920x1080p 23.98fps 14.6 Mbps
Аудио 1: Russian : DTS 48000Hz 5.1ch 1510kbps
Аудио 2: English : DTS 48000Hz 5.1ch 1510kbps

Скриншоты



me

Format : Matroska
File size : 14.2 GiB
Duration : 1h 52mn
Overall bit rate : 18.0 Mbps
Encoded date : UTC 2011-03-18 12:44:38
Writing application : mkvmerge v2.9.7 ('Tenderness') built on Jul 1 2009 18:43:35
Writing library : libebml v0.7.7 + libmatroska v0.8.1
Video
ID : 1
Format : AVC
Format/Info : Advanced Video Codec
Format profile : High@L4.1
Format settings, CABAC : Yes
Format settings, ReFrames : 4 frames
Format settings, GOP : M=4, N=32
Muxing mode : Container profile=Unknown@4.1
Codec ID : V_MPEG4/ISO/AVC
Duration : 1h 52mn
Bit rate : 14.6 Mbps
Width : 1 920 pixels
Height : 1 080 pixels
Display aspect ratio : 16:9
Frame rate : 23.976 fps
Color space : YUV
Chroma subsampling : 4:2:0
Bit depth : 8 bits
Scan type : Progressive
Bits/(Pixel*Frame) : 0.294
Stream size : 11.5 GiB (81%)
Writing library : x264 core 114 r1913 5fd3dce
Encoding settings : cabac=1 / ref=4 / deblock=1:-1:-1 / analyse=0x3:0x113 / me=umh / subme=9 / psy=1 / psy_rd=1.00:0.15 / mixed_ref=1 / me_range=16 / chroma_me=1 / trellis=1 / 8x8dct=1 / cqm=0 / deadzone=21,11 / fast_pskip=1 / chroma_qp_offset=-3 / threads=18 / sliced_threads=0 / nr=0 / decimate=1 / interlaced=0 / constrained_intra=0 / bframes=3 / b_pyramid=2 / b_adapt=1 / b_bias=0 / direct=3 / weightb=1 / open_gop=0 / weightp=2 / keyint=250 / keyint_min=23 / scenecut=40 / intra_refresh=0 / rc_lookahead=40 / rc=crf / mbtree=1 / crf=18.0 / qcomp=0.60 / qpmin=10 / qpmax=69 / qpstep=4 / ip_ratio=1.40 / aq=1:1.00
Language : English
Audio #1
ID : 2
Format : DTS
Format/Info : Digital Theater Systems
Codec ID : A_DTS
Duration : 1h 52mn
Bit rate mode : Constant
Bit rate : 1 510 Kbps
Channel(s) : 6 channels
Channel positions : Front: L C R, Side: L R, LFE
Sampling rate : 48.0 KHz
Bit depth : 24 bits
Stream size : 1.19 GiB (8%)
Language : Russian
Audio #2
ID : 3
Format : DTS
Format/Info : Digital Theater Systems
Codec ID : A_DTS
Duration : 1h 52mn
Bit rate mode : Constant
Bit rate : 1 510 Kbps
Channel(s) : 6 channels
Channel positions : Front: L C R, Side: L R, LFE
Sampling rate : 48.0 KHz
Bit depth : 24 bits
Stream size : 1.19 GiB (8%)
Language : English
Благодарности релизеру (14)

Торрент:

Статус:

Размер:

Зарегистрирован   [ 2011-03-23 00:19 ]

проверено

14.18 GB