Торренты   
 
 


Кенни Чесни: лето в 3D / Kenny Chesney: Summer in 3D (Joe Thomas) [2010 г., Anamorph SideBySide]

Рейтинг 3D:
Пока никто не голосовал
Рейтинг фильма:
Пока никто не голосовал
 
Вы должны быть авторизированы,
чтобы ставить оценки


Кенни Чесни: лето в 3D / Kenny Chesney: Summer in 3D
Год выпуска: 2010
Страна: CША
Жанр: музыка
Продолжительность: 1 ч. 38 м.
Перевод: Отсутствует
Режиссер: Joe Thomas
В ролях: Kenny Chesney
Описание: Country music singer Kenny Chesney performs live in Pittsburgh, Philadelphia, Seattle, Indianapolis and Foxboro, Massachusetts.
Доп. информация: Музыкальный фильм- концерт о творчестве известного американского исполнителя кантри- музыки Кенни Чесни в ФОРМАТЕ 3D.
Формат 3d: Anamorph SideBySide
Порядок ракурсов: Параллельная пара

Скриншоты




Медиа Инфо

Полное имя : D:\Kenny.Chesney.Summer.In.3D.2010.ENG.DTS.1080p.3DBD.x264.half.SBS.z-man.mkv
Формат : Matroska
Размер файла : 13,5 Гбайт
Продолжительность : 1 ч. 38 м.
Общий поток : 19,5 Мбит/сек
Дата кодирования : UTC 2011-03-15 20:56:44
Программа кодирования : mkvmerge v4.4.0 ('Die Wiederkehr') gebaut am Oct 31 2010 21:52:48
Библиотека кодирования : libebml v1.0.0 + libmatroska v1.0.0
Видео
Идентификатор : 1
Формат : AVC
Формат/Информация : Advanced Video Codec
Профиль формата : High@L4.1
Параметр CABAC формата : Да
Параметр ReFrames формата : 4 кадры
Идентификатор кодека : V_MPEG4/ISO/AVC
Продолжительность : 1 ч. 38 м.
Битрейт : 18,0 Мбит/сек
Ширина : 1920 пикс.
Высота : 1080 пикс.
Соотношение сторон : 16:9
Частота кадров : 23,976 кадр/сек
Цветовое пространство : YUV
Подвыборка цветности : 4:2:0
Битовая глубина : 8 бит
Тип развёртки : Прогрессивная
Бит/(Пиксели*Кадры) : 0.362
Размер потока : 12,2 Гбайт (90%)
Заголовок : Kenny.Chesney.Summer.In.3D.2010.ENG.DTS.1080p.3DBD.x264.half.SBS.z-man
Библиотека кодирования : x264 core 114 r1913 5fd3dce
Настройки программы : cabac=1 / ref=4 / deblock=1:-1:-1 / analyse=0x3:0x113 / me=umh / subme=9 / psy=1 / psy_rd=1.00:0.15 / mixed_ref=1 / me_range=16 / chroma_me=1 / trellis=1 / 8x8dct=1 / cqm=0 / deadzone=21,11 / fast_pskip=1 / chroma_qp_offset=-3 / threads=18 / sliced_threads=0 / nr=0 / decimate=1 / interlaced=0 / constrained_intra=0 / bframes=3 / b_pyramid=2 / b_adapt=1 / b_bias=0 / direct=1 / weightb=1 / open_gop=0 / weightp=2 / keyint=250 / keyint_min=23 / scenecut=40 / intra_refresh=0 / rc_lookahead=40 / rc=2pass / mbtree=1 / bitrate=18000 / ratetol=1.0 / qcomp=0.60 / qpmin=0 / qpmax=69 / qpstep=4 / cplxblur=20.0 / qblur=0.5 / ip_ratio=1.40 / aq=1:1.00
Аудио
Идентификатор : 2
Формат : DTS
Формат/Информация : Digital Theater Systems
Идентификатор кодека : A_DTS
Продолжительность : 1 ч. 38 м.
Вид битрейта : Постоянный
Битрейт : 1510 Кбит/сек
Канал(ы) : 6 канала(ов)
Расположение каналов : Front: L C R, Side: L R, LFE
Частота : 48,0 КГц
Битовая глубина : 24 бит
Метод сжатия : С потерями
Размер потока : 1,04 Гбайт (8%)
Язык : English
Благодарности релизеру (2)

Торрент:

Статус:

Размер:

Зарегистрирован   [ 2011-03-23 15:19 ]

проверено

13.46 GB