Торренты   
 
 

 

Трон: Наследие / TRON: Legacy (Джозеф Косински) [2010 г., BDRip, 720p, OverUnder]

Рейтинг 3D:
79 голосов
7.1
Рейтинг фильма:
72 голосов
7.1
 
Вы должны быть авторизированы,
чтобы ставить оценки


Трон: Наследие / TRON: Legacy
Год выпуска: 2010
Страна: США
Жанр: фантастика, боевик, триллер, приключения
Продолжительность: 02:05:08
Перевод: Профессиональный (полное дублирование)
Режиссер: Джозеф Косински
В ролях: Джефф Бриджес, Гаррет Хедлунд, Оливия Уайлд, Брюс Бокслейтнер, Джеймс Фрейн, Бо Гарретт, Майкл Шин, Серинда Свон, Йайа ДаКоста, Элизабет Мэтис
Описание: Сэм Флинн, технически одарённый 27-летний сын Кевина Флинна, начинает расследовать исчезновение своего отца и оказывается втянутым в тот же мир жестоких программ и гладиаторских игр, в котором его отец жил на протяжении 20 лет. Вместе с помощницей Кевина отец и сын пускаются в рискованное путешествие за жизнью по поражающей взгляд кибер-вселенной, которая стала ещё более совершенной и чрезвычайно опасной...
Релиз группы:

Доп. информация:
Качество: BD3DRip
Формат: MKV
Формат 3d: OverUnder / Вертикальная стереопара
Видео кодек: x264
Аудио кодек: AC-3
Видео: MPEG4 Video (H264) 1280x1440 23,976 fps 10,8 Mbps
Аудио1: Russian 5.1 Dolby AC3 48000Hz 640kbps
Аудио2: English 5.1 Dolby AC3 48000Hz 448kbps
Субтитры1: English, UTF-8 Plain Text
Субтитры2: Russian, UTF-8 Plain Text
Субтитры3: Russian forced, UTF-8 Plain Text

Медиаинфо:

Общее
Формат : Matroska
Размер файла : 10,6 Гбайт
Продолжительность : 2 ч. 5 м.
Общий поток : 12,1 Мбит/сек
Дата кодирования : UTC 2011-03-22 20:42:09
Программа кодирования : mkvmerge v3.4.0 ('Rapunzel') сборка от May 15 2010 09:38:20
Библиотека кодирования : libebml v0.8.0 + libmatroska v0.9.0
Видео
Идентификатор : 1
Формат : AVC
Формат/Информация : Advanced Video Codec
Профиль формата : High@L4.0
Параметр CABAC формата : Да
Параметр ReFrames формата : 4 кадры
Идентификатор кодека : V_MPEG4/ISO/AVC
Продолжительность : 2 ч. 5 м.
Битрейт : 10,8 Мбит/сек
Ширина : 1280 пикс.
Высота : 1440 пикс.
Соотношение сторон : 0,889
Частота кадров : 23,976 кадр/сек
Цветовое пространство : YUV
Подвыборка цветности : 4:2:0
Битовая глубина : 8 бит
Тип развёртки : Прогрессивная
Бит/(Пиксели*Кадры) : 0.244
Размер потока : 9,43 Гбайт (89%)
Заголовок : Tron3D
Библиотека кодирования : x264 core 114 r1913 5fd3dce
Настройки программы : cabac=1 / ref=4 / deblock=1:-3:-3 / analyse=0x3:0x133 / me=tesa / subme=10 / psy=1 / psy_rd=1.10:0.15 / mixed_ref=1 / me_range=32 / chroma_me=1 / trellis=2 / 8x8dct=1 / cqm=0 / deadzone=21,11 / fast_pskip=0 / chroma_qp_offset=-3 / threads=12 / sliced_threads=0 / nr=0 / decimate=0 / interlaced=0 / constrained_intra=0 / bframes=9 / b_pyramid=2 / b_adapt=2 / b_bias=0 / direct=3 / weightb=1 / open_gop=0 / weightp=2 / keyint=250 / keyint_min=23 / scenecut=40 / intra_refresh=0 / rc=crf / mbtree=0 / crf=18.0 / qcomp=0.70 / qpmin=0 / qpmax=69 / qpstep=4 / ip_ratio=1.40 / pb_ratio=1.30 / aq=1:0.80
Аудио #1
Идентификатор : 2
Формат : AC-3
Формат/Информация : Audio Coding 3
Расширение режима : CM (complete main)
Идентификатор кодека : A_AC3
Продолжительность : 2 ч. 5 м.
Вид битрейта : Постоянный
Битрейт : 640 Кбит/сек
Канал(ы) : 6 канала(ов)
Расположение каналов : Front: L C R, Side: L R, LFE
Частота : 48,0 КГц
Битовая глубина : 16 бит
Метод сжатия : С потерями
Размер потока : 573 Мбайт (5%)
Заголовок : Russian 5.1 Dub
Язык : Russian
Аудио #2
Идентификатор : 3
Формат : AC-3
Формат/Информация : Audio Coding 3
Расширение режима : CM (complete main)
Идентификатор кодека : A_AC3
Продолжительность : 2 ч. 5 м.
Вид битрейта : Постоянный
Битрейт : 448 Кбит/сек
Канал(ы) : 6 канала(ов)
Расположение каналов : Front: L C R, Side: L R, LFE
Частота : 48,0 КГц
Битовая глубина : 16 бит
Метод сжатия : С потерями
Размер потока : 401 Мбайт (4%)
Заголовок : English 5.1
Язык : English
Текст #1
Идентификатор : 4
Формат : UTF-8
Идентификатор кодека : S_TEXT/UTF8
Идентификатор кодека/Информация : UTF-8 Plain Text
Заголовок : Eng sub
Язык : English
Текст #2
Идентификатор : 5
Формат : UTF-8
Идентификатор кодека : S_TEXT/UTF8
Идентификатор кодека/Информация : UTF-8 Plain Text
Заголовок : Rus sub
Язык : Russian
Текст #3
Идентификатор : 6
Формат : UTF-8
Идентификатор кодека : S_TEXT/UTF8
Идентификатор кодека/Информация : UTF-8 Plain Text
Заголовок : Rus forced sub
Язык : Russian
Меню
00:00:00.000 : :Main title / The same team
00:04:07.164 : :All grown up
00:14:44.133 : :A visit from a friend
00:23:15.603 : :The grid
00:26:52.694 : :Games
00:36:12.212 : :Not your father
00:38:35.980 : :Lightcycle battle
00:46:52.727 : :The real Kevin Flinn
00:53:03.764 : :Fater's wisdom
01:04:54.182 : :Castor
01:13:47.423 : :Zuse
01:19:00.945 : :She's an iso
01:22:40.455 : :Catching up
01:25:50.896 : :A deal
01:28:11.828 : :A rescue
01:31:42.414 : :Bulding an army
01:43:13.062 : :Air battle
01:48:18.033 : :Flynn's sacrifice
01:54:48.381 : :You were right
01:58:03.660 : :End credits

Скриншоты:








Остальные раздачи этого фильма (7)
Благодарности релизеру (6)

Торрент:

Статус:

Размер:

Зарегистрирован   [ 2011-03-25 23:52 ]

проверено

10.59 GB

 
 Мнение о фильме (17)





это фантастика! лучше не видел фильма в 3D! спасибо!!
 

Давно хотел посмотреть этот фильм а когда посмотрел пожалел.
 

ХЕРНЯ ПОЛНАЯ! ОБЫЧНЫЙ 2Д ФИЛЬМ С 3Д сценами. Самый лучший фильм в 3Д полноценном который тут есть это санлентхил 2 вот там реально тема!
 

Фильм сделан классно,но сюжет мог бы быть интереснее
 

Фильм среднячок, а 3D хорошее :)
 

нормально. ожидал, конечно большего.
 

Смотрел в кинотеатре в IMAX, пересмотрел дома нормальный фильм
 

Хоспади, какие же дебилы тут каменты оставляют....
 

Фильм просто супер, а также великолепное 3D! Лучший саундтрек, который я встречал в кинематографе. Буйство стиля и дизайна!
 

3D ниочем, а фильм хороший
 

И где тут 3D? долго искал и не нашел.
 

Фильм норма 3d тоже спасибо!
 

раздаю
 

Ребятушки, ну раздайте! 3 Гб уже неделю вытянуть не могу!
 

вернитесь на раздачу,пожалуйста!!
 

супер
 

все много как по качеству и звуку смотреть можно?