Торренты   
 
 


Шевели ластами в 3D (полная версия) / Sammy's avonturen: De geheime doorgang in 3D (Бен Стассен / Ben Stassen) [2010 г., Anamorph OverUnder]

Шевели ластами в 3D (полная версия) / Sammy's avonturen: De geheime doorgang in 3D
Год выпуска: 2010
Страна: Бельгия
Жанр: приключения, мультфильм
Продолжительность: 01:25:33
Перевод: Профессиональный дублированный
Режиссер: Бен Стассен / Ben Stassen
В ролях: Мелани Гриффит, Изабелль Фюрман, Юрий Ловенталь, Энтони Андерсон, Сидни Хоуп Баннер, Эд Бегли мл., Даррен Капоцци, Пэт Кэрролл, Крис Эндрю Кулла, Тим Карри
Описание: Для маленькой черепашки подводный мир — самое безопасное место. Здесь акулы, пираньи, змеи, а на берегу поджидают люди. И наш маленький Сэмми хочет узнать весь мир, от полярных льдов до субтропиков. Путешествие продлится ровно полвека, начиная с 1959 года, за это время даже климат успеет измениться.
Доп. информация: Тоже самое видео что и http://torrents3d.ru/viewtopic.php?t=976 добавлен звук в AC-3 Идет на телевизорах LG через встроенный медиа плеер
Формат 3d: Anamorph OverUnder
Порядок ракурсов : Левый ракурс верхний

Скриншоты




MediaInfo

General
Complete name : C:\MKV\Шевели ластами AC-3_DTS_1080P .mkv
Format : Matroska
File size : 5.85 GiB
Duration : 1h 25mn
Overall bit rate : 9 790 Kbps
Encoded date : UTC 2011-03-26 13:04:43
Writing application : mkvmerge v4.3.0 ('Escape from the Island') сборка от Sep 5 2010 10:30:51
Writing library : libebml v1.0.0 + libmatroska v1.0.0
Video
ID : 1
Format : AVC
Format/Info : Advanced Video Codec
Format profile : High@L4.1
Format settings, CABAC : Yes
Format settings, ReFrames : 3 frames
Codec ID : V_MPEG4/ISO/AVC
Duration : 1h 25mn
Bit rate mode : Variable
Bit rate : 8 392 Kbps
Maximum bit rate : 40.0 Mbps
Width : 1 920 pixels
Height : 1 080 pixels
Display aspect ratio : 16:9
Frame rate : 23.976 fps
Color space : YUV
Chroma subsampling : 4:2:0
Bit depth : 8 bits
Scan type : Progressive
Bits/(Pixel*Frame) : 0.169
Stream size : 5.02 GiB (86%)
Writing library : x264 core 112 r1834 a51816a
Encoding settings : cabac=1 / ref=4 / deblock=1:-1:-1 / analyse=0x3:0x113 / me=umh / subme=8 / psy=1 / psy_rd=1.00:0.15 / mixed_ref=1 / me_range=16 / chroma_me=1 / trellis=1 / 8x8dct=1 / cqm=0 / deadzone=21,11 / fast_pskip=1 / chroma_qp_offset=-3 / threads=6 / sliced_threads=0 / slices=4 / nr=0 / decimate=1 / interlaced=0 / constrained_intra=0 / bframes=4 / b_pyramid=1 / b_adapt=2 / b_bias=0 / direct=3 / weightb=1 / open_gop=0 / weightp=2 / keyint=250 / keyint_min=23 / scenecut=40 / intra_refresh=0 / rc_lookahead=50 / rc=crf / mbtree=1 / crf=18.0 / qcomp=0.60 / qpmin=0 / qpmax=51 / qpstep=4 / vbv_maxrate=40000 / vbv_bufsize=30000 / crf_max=0.0 / ip_ratio=1.40 / aq=1:1.00 / nal_hrd=vbr
Color primaries : BT.709-5, BT.1361, IEC 61966-2-4, SMPTE RP177
Transfer characteristics : BT.709-5, BT.1361
Matrix coefficients : BT.709-5, BT.1361, IEC 61966-2-4 709, SMPTE RP177
Audio #1
ID : 3
Format : AC-3
Format/Info : Audio Coding 3
Mode extension : CM (complete main)
Codec ID : A_AC3
Duration : 1h 25mn
Bit rate mode : Constant
Bit rate : 448 Kbps
Channel(s) : 6 channels
Channel positions : Front: L C R, Side: L R, LFE
Sampling rate : 48.0 KHz
Bit depth : 16 bits
Stream size : 274 MiB (5%)
Audio #2
ID : 4
Format : DTS
Format/Info : Digital Theater Systems
Codec ID : A_DTS
Duration : 1h 25mn
Bit rate mode : Constant
Bit rate : 755 Kbps
Channel(s) : 6 channels
Channel positions : Front: L C R, Side: L R, LFE
Sampling rate : 48.0 KHz
Bit depth : 24 bits
Stream size : 462 MiB (8%)
Text
ID : 2
Format : PGS
Codec ID : S_HDMV/PGS
Codec ID/Info : The same subtitle format used on BDs/HD-DVDs
AC-3_DTS_1080P .mkv.torrent
Торрент: Не зарегистрирован

Скачать

30 KB

Добавлен: 2011-03-26 20:00
Скачано: 2167 раз  [ Список скачавших ]
   
Комментарии:





Интересно , откуда звуковая дорожка ? Лицензия вроде 1ч 10 или 13 мин !
 

перекодировал с dts
 

просто очень хотелось со звуком по 3dTV посмотреть
 

Наконец-то с нормальным звуком, так держать!!!
 

так здесь русский звук полностью присутствует, можно без субтитров смотреть?
 

Звук здесь просто перекодирован из ДТС в АС-3 и взят оттуда же откуда и видео...
 

спасибо за ответ!, но если честно я в этих тонкостях не силен; если кратко - с качеством аудио/видео все в порядке? и будет ли релиз этого мульта от вашей группы?
 

Он в принципе как-бы уже давно есть, только без "Лейбла". Как со звуком работа закончится, тот релиз будет перезалит, о чем в нем и указано, ссылка в первом посте!
Мало того, планируется релиз рипа 1920х2160.
 

супер, подожду "большой" релиз
и вообще спасибо за труды, ребята
 

Возможно за счет того, что вертикальная пара - эффект 3 D выглядит не очень впечатляюще и глаза очень сильно устают. Качество картинки - в целом хорошее, однако периодически в нескольких местах рассыпается на пиксели. Звук на 5! В любом случае автору спасибо за труды.
 

jaroslavtg
1) поменяйте ракурсы местами;
2) обновите кодеки.
 

Смотрел полностью этот рип, только в релизе TopGun'а - ракурсы, естественно, менять местами. И ничего не рассыпалось ни в одном месте.
 

Топик был перенесен из форума Фильмы HD в форум Архив

Zagruzin